<?xml version="1.0" standalone="no"?>
<!DOCTYPE svg PUBLIC "-//W3C//DTD SVG 1.1//EN" "http://www.w3.org/Graphics/SVG/1.1/DTD/svg11.dtd" >
<svg xmlns="http://www.w3.org/2000/svg" xmlns:xlink="http://www.w3.org/1999/xlink" version="1.1">
<metadata></metadata>
<defs>
<font id="prelo_bold_italicbold_italic" horiz-adv-x="1085" >
<font-face units-per-em="2048" ascent="1536" descent="-512" />
<missing-glyph horiz-adv-x="368" />
<glyph horiz-adv-x="0" />
<glyph horiz-adv-x="682" />
<glyph unicode=" "  horiz-adv-x="368" />
<glyph unicode="&#x09;" horiz-adv-x="368" />
<glyph unicode="&#xa0;" horiz-adv-x="368" />
<glyph unicode="!" horiz-adv-x="440" d="M86 0l41 297h266l-41 -297h-266zM164 444l117 949h266l-148 -949h-235z" />
<glyph unicode="&#x22;" horiz-adv-x="849" d="M268 1079l13 314h266l-74 -314h-205zM678 1079l12 314h266l-73 -314h-205z" />
<glyph unicode="#" horiz-adv-x="1249" d="M115 209l43 174h204l64 256h-205l41 174h205l53 211h191l-54 -211h226l53 211h188l-53 -211h205l-41 -174h-205l-63 -256h204l-43 -174h-204l-52 -209h-188l51 209h-225l-51 -209h-191l51 209h-204zM553 383h225l64 256h-226z" />
<glyph unicode="$" horiz-adv-x="1228" d="M94 55l80 236q245 -62 473 -62q114 0 177.5 44.5t72.5 117.5q4 27 -3.5 49.5t-27.5 40.5t-40.5 31t-55 25.5t-57 19.5t-60 17t-51.5 14q-396 121 -352 436q13 95 59 168.5t115.5 119t154 70t183.5 29.5l26 186h113l-27 -186q126 -7 206.5 -22t211.5 -54l-96 -235 q-237 61 -420 61q-111 0 -166 -40t-63 -105q-4 -28 4 -51.5t33 -42.5t43.5 -31t62.5 -26.5t60.5 -19t64.5 -16.5q5 -2 8 -2.5t7.5 -1.5t7.5 -2q91 -22 159.5 -54t120 -81t72.5 -119t8 -159q-18 -131 -92.5 -227t-184.5 -145t-247 -56l-27 -187h-112l26 187q-258 8 -467 73z " />
<glyph unicode="%" horiz-adv-x="1556" d="M231 1108q19 140 106 219.5t228 79.5t206 -79.5t46 -219.5q-21 -141 -108 -221t-228 -80t-205.5 80t-44.5 221zM311 0l953 1393h174l-953 -1393h-174zM397 1108q-24 -168 103 -168t151 168q24 166 -102 166q-128 0 -152 -166zM934 285q19 141 106 221t228 80t206 -80 t46 -221q-22 -141 -109 -221t-227 -80q-141 0 -206.5 80.5t-43.5 220.5zM1100 285q-24 -166 102 -166q129 0 150 166t-103 166q-128 0 -149 -166z" />
<glyph unicode="&#x26;" horiz-adv-x="1443" d="M135 365q14 113 95 204.5t276 192.5q-64 96 -90.5 162t-16.5 141q16 112 88 193t169 118t206 37q179 0 269.5 -90t68.5 -250q-14 -90 -86.5 -174t-243.5 -170l240 -264q90 107 137 252h250q-29 -109 -90.5 -222t-149.5 -208l138 -164l-201 -189l-150 181 q-209 -135 -464 -135q-251 0 -360 104.5t-85 280.5zM422 408q-11 -85 43 -143t166 -58q152 0 274 80l-282 342q-184 -100 -201 -221zM659 1075q-7 -51 13 -96t67 -105q99 52 150.5 102.5t60.5 106.5q11 77 -27.5 112.5t-93.5 35.5q-78 0 -120.5 -47t-49.5 -109z" />
<glyph unicode="'" horiz-adv-x="440" d="M268 1079l13 314h266l-74 -314h-205z" />
<glyph unicode="(" horiz-adv-x="675" d="M190 696q37 262 165 516.5t335 466.5h174q-334 -464 -407 -983q-36 -241 -5 -484t136 -499h-174q-146 212 -203 469.5t-21 513.5z" />
<glyph unicode=")" horiz-adv-x="675" d="M6 -287q178 256 274.5 493.5t131.5 489.5q73 514 -131 983h174q146 -213 202.5 -467t20.5 -516q-36 -257 -165 -514t-335 -469h-172z" />
<glyph unicode="*" horiz-adv-x="845" d="M223 1085l66 150l237 -92l15 250h153l-55 -250l262 92l25 -150l-264 -30l143 -197l-131 -92l-113 238l-176 -238l-106 92l198 197z" />
<glyph unicode="+" horiz-adv-x="1024" d="M147 432l31 221h316l43 314h221l-45 -314h315l-31 -221h-315l-45 -315h-219l43 315h-314z" />
<glyph unicode="," horiz-adv-x="440" d="M86 0l41 297h266l-41 -297l-166 -266h-82l91 266h-109z" />
<glyph unicode="-" horiz-adv-x="1024" d="M147 432l31 221h850l-31 -221h-850z" />
<glyph unicode="." horiz-adv-x="440" d="M86 0l41 297h266l-41 -297h-266z" />
<glyph unicode="/" horiz-adv-x="1105" d="M55 0l953 1393h235l-952 -1393h-236z" />
<glyph unicode="0" horiz-adv-x="1208" d="M165.5 478q0.5 102 18.5 229q18 125 45 225t75.5 192.5t114.5 154t163 98t219 36.5t209 -36.5t135 -98t70.5 -154t22 -192.5t-18.5 -225q-18 -127 -45.5 -229t-76 -197.5t-114.5 -159.5t-163.5 -102.5t-219.5 -38.5t-208.5 38.5t-134.5 102.5t-70 159.5t-21.5 197.5z M467 707q-72 -508 164 -508q68 0 121 39.5t89 112.5t58.5 159t38.5 197q18 141 15.5 248.5t-48 172t-135.5 64.5q-68 0 -120 -36t-87 -104t-57.5 -151.5t-38.5 -193.5z" />
<glyph unicode="1" horiz-adv-x="778" d="M201 1178q308 112 463 225h194l-196 -1403h-267l152 1090l-309 -134z" />
<glyph unicode="2" horiz-adv-x="1126" d="M86 0l35 254q213 124 361 229t227 186.5t114 143t43 121.5q9 60 -2.5 105t-33 69t-55.5 38.5t-61.5 18.5t-58.5 4q-150 0 -338 -71l-49 213q143 55 249 78.5t233 23.5q115 0 200.5 -32.5t134 -90t67 -133.5t5.5 -166q-15 -106 -65.5 -203t-138 -189.5t-197 -177.5 t-260.5 -181v-4h575l-33 -236h-952z" />
<glyph unicode="3" horiz-adv-x="1167" d="M96 80l109 203q178 -84 379 -84q71 0 125 19t84.5 49.5t46.5 62t20 63.5q13 97 -49 145t-199 48h-184l33 221h172q72 0 126.5 18.5t85.5 50t47.5 66t22.5 74.5q9 72 -36 124t-156 52q-94 0 -179 -19.5t-194 -64.5l-51 205q234 100 500 100q123 0 215 -40.5t140 -125.5 t32 -203q-17 -113 -92.5 -194t-196.5 -123v-4q134 -34 194 -128t42 -216q-28 -192 -175.5 -295.5t-390.5 -103.5q-139 0 -250 22t-221 78z" />
<glyph unicode="4" horiz-adv-x="1208" d="M111 322l30 221q428 405 686 850h330l-119 -850h179l-31 -221h-180l-43 -322h-267l43 322h-628zM414 543h358l70 504h-4q-97 -144 -192.5 -255t-231.5 -249z" />
<glyph unicode="5" horiz-adv-x="1167" d="M96 82l109 205q98 -49 181 -68.5t179 -19.5q127 0 203 68t92 177q3 33 2.5 66.5t-13.5 65t-34 55.5t-59 38.5t-88 14.5q-130 0 -234 -98l-188 16l137 791h809l-33 -236h-577l-68 -340l4 -2q58 43 132 69.5t145 26.5q189 0 284.5 -116.5t65.5 -333.5q-35 -235 -191 -358 t-405 -123q-125 0 -231 23t-222 79z" />
<glyph unicode="6" horiz-adv-x="1167" d="M161.5 452.5q-3.5 79.5 10.5 161.5q112 799 719 799q179 0 336 -57l-62 -205q-155 41 -280 41q-155 0 -276.5 -113.5t-145.5 -290.5l4 -2q63 68 145.5 107t169.5 39q200 0 296 -126.5t63 -354.5q-30 -218 -180.5 -344.5t-364.5 -126.5q-91 0 -164 24t-121.5 67t-83 102.5 t-48.5 129.5t-17.5 149.5zM437 404.5q0 -45.5 10.5 -81.5t30 -64.5t54.5 -44t82 -15.5q91 0 160 66t86 186q3 34 4 68.5t-10 67t-30 58t-56 40.5t-88 15q-114 0 -221 -110q-11 -50 -16.5 -95t-5.5 -90.5z" />
<glyph unicode="7" horiz-adv-x="1024" d="M188 0q83 267 261 585.5t378 567.5l2 4h-602l33 236h891l-27 -191q-86 -121 -145.5 -208t-138 -214t-135.5 -238.5t-116.5 -254t-103.5 -287.5h-297z" />
<glyph unicode="8" horiz-adv-x="1208" d="M135 348q32 231 328 346l2 4q-224 118 -193 342q13 91 63 163.5t124.5 117.5t164 68.5t185.5 23.5q91 0 170.5 -23t140 -67t90 -113t17.5 -155q-16 -111 -86.5 -185t-200.5 -135v-4q131 -68 191 -152.5t43 -201.5q-19 -132 -104.5 -223.5t-207.5 -132.5t-270 -41 q-105 0 -192 21.5t-152 64.5t-95.5 115.5t-17.5 166.5zM412 377q-10 -84 44 -142.5t181 -58.5q122 0 185 49.5t73 126.5q5 39 -6.5 71.5t-30.5 54.5t-54.5 44t-62 33.5t-69.5 29.5q-18 7 -27 11q-213 -79 -233 -219zM539 1047q-7 -56 23.5 -102t78.5 -72.5t111 -43.5 q83 28 139.5 80t66.5 123q12 86 -44 135.5t-148 49.5q-82 0 -149 -46t-78 -124z" />
<glyph unicode="9" horiz-adv-x="1167" d="M133 37l62 203q165 -41 282 -41q155 0 275.5 113t144.5 290l-2 2q-65 -66 -148 -104.5t-169 -38.5q-200 0 -296.5 126.5t-64.5 354.5q30 218 181.5 344.5t365.5 126.5q91 0 164 -24.5t122 -67.5t83.5 -102.5t48.5 -130t17 -149.5t-11 -161q-112 -798 -719 -798 q-176 0 -336 57zM496.5 873.5q-0.5 -34.5 11 -67.5t30.5 -58t56 -40.5t88 -15.5q110 0 221 111q14 61 19.5 114t0.5 105t-23.5 88.5t-57 59t-94.5 22.5q-91 0 -160.5 -65.5t-87.5 -184.5q-3 -34 -3.5 -68.5z" />
<glyph unicode=":" horiz-adv-x="440" d="M86 0l41 297h266l-41 -297h-266zM176 645l41 297h266l-41 -297h-266z" />
<glyph unicode=";" horiz-adv-x="440" d="M86 0l41 297h266l-41 -297l-166 -266h-82l91 266h-109zM176 645l41 297h266l-41 -297h-266z" />
<glyph unicode="&#x3c;" horiz-adv-x="778" d="M147 432l23 160l649 330l-33 -238l-346 -172l297 -174l-32 -236z" />
<glyph unicode="=" horiz-adv-x="1024" d="M119 227l31 222h849l-30 -222h-850zM176 637l31 221h850l-31 -221h-850z" />
<glyph unicode="&#x3e;" horiz-adv-x="778" d="M98 86l33 238l350 188l-297 188l35 236l555 -344l-22 -160z" />
<glyph unicode="?" horiz-adv-x="983" d="M252 1333q96 36 214.5 58t225.5 22q71 0 129.5 -12.5t97.5 -33.5t69 -50.5t45 -63t24.5 -70.5t8 -73.5t-4.5 -71.5q-10 -70 -37.5 -128t-64.5 -97.5t-79.5 -73.5t-83.5 -61.5t-76 -54t-59.5 -60t-29.5 -71.5l-8 -62h-236l8 62q11 76 42.5 137t71.5 98t86 72.5t84.5 62 t67.5 65.5t35 85q6 39 -4 68t-27.5 44t-46 24t-51.5 11t-51 2q-127 0 -307 -57zM311 0l41 297h266l-40 -297h-267z" />
<glyph unicode="@" horiz-adv-x="1699" d="M133 518q25 176 109 328.5t208 259.5t286 168t339 61q206 0 365.5 -83t239 -236.5t51.5 -347.5q-16 -110 -61.5 -206t-116 -169.5t-172 -115.5t-220.5 -42h-168l11 80h-3q-56 -52 -112.5 -73t-132.5 -21q-115 0 -172 68t-43 173q10 71 47 122t91 77.5t111.5 38.5 t122.5 12h148l8 54q8 61 -21.5 89.5t-107.5 28.5q-109 0 -270 -45l-19 140q202 65 365 65q146 0 214.5 -60t49.5 -206l-57 -389q64 0 118 24t91.5 62t66 88.5t44 98.5t22.5 97q22 156 -39.5 276.5t-184.5 184.5t-284 64q-192 0 -354.5 -83.5t-268.5 -235.5t-133 -347 q-18 -130 11.5 -244.5t97.5 -196.5t174 -129.5t235 -47.5l-37 -146q-163 0 -296 58.5t-217.5 160t-121.5 242.5t-14 303zM754 381q-7 -50 21.5 -76t80.5 -26q47 0 92.5 15t71.5 34l22 164h-139q-137 0 -149 -111z" />
<glyph unicode="A" horiz-adv-x="1331" d="M45 0l647 1403h344l248 -1403h-311l-51 315h-441l-137 -315h-299zM573 551h326l-90 500h-4z" />
<glyph unicode="B" horiz-adv-x="1249" d="M106 0l195 1393h590q217 1 319 -93q81 -75 81 -200q0 -31 -5 -64q-15 -111 -83.5 -194t-172.5 -119v-4q113 -35 169 -121q41 -63 41 -151q0 -31 -5 -66q-27 -181 -154.5 -281t-343.5 -100h-631zM424 250h301q96 0 151 38.5t68 131.5q2 18 2 35q0 63 -37 94 q-47 39 -147 39h-293zM506 840h276q91 0 140 35.5t61 115.5q2 16 2 29q0 54 -31 84q-39 37 -129 37h-276z" />
<glyph unicode="C" horiz-adv-x="1269" d="M170 541q2 77 14 166q17 124 48.5 225t88 192.5t134 153.5t191.5 98.5t257 36.5q243 0 492 -78l-97 -235q-152 37 -236.5 49t-170.5 12q-185 0 -281 -117t-129 -337q-11 -78 -11 -144q0 -131 42 -212q64 -122 250 -122q83 0 171 12.5t253 49.5l28 -236q-269 -75 -512 -75 q-103 0 -185.5 19.5t-141 54.5t-100 87t-65 112.5t-33.5 135.5q-8 60 -8 121q1 16 1 31z" />
<glyph unicode="D" horiz-adv-x="1331" d="M106 0l195 1393h520q117 0 208.5 -23.5t151.5 -67t100 -105t56 -138t18 -165.5v-20q0 -80 -14 -167q-17 -125 -49 -227t-88.5 -193t-134 -153t-190 -98t-252.5 -36h-521zM424 250h238q78 0 137.5 21.5t100 59t69.5 97t45.5 125.5t29.5 154q13 93 13 166q0 37 -3 69 q-10 96 -75 147.5t-193 51.5h-237z" />
<glyph unicode="E" horiz-adv-x="1146" d="M106 0l195 1393h942l-33 -252h-661l-43 -297h569l-37 -250h-567l-47 -344h670l-35 -250h-953z" />
<glyph unicode="F" horiz-adv-x="1095" d="M106 0l195 1393h922l-33 -252h-641l-49 -338h549l-35 -250h-547l-78 -553h-283z" />
<glyph unicode="G" horiz-adv-x="1310" d="M170 541q2 77 14 166q17 124 48.5 225t88 192.5t134 153.5t191.5 98.5t257 36.5q239 0 488 -78l-97 -235q-155 37 -236.5 49t-166.5 12q-185 0 -281 -117t-129 -337q-11 -78 -11 -144q0 -131 42 -212q64 -122 250 -122q98 0 196 39l31 228h-215l37 252h496l-95 -672 q-145 -49 -262 -72.5t-248 -23.5q-103 0 -185.5 19.5t-141 54.5t-100 87t-65 112.5t-33.5 135.5q-8 60 -8 121q0 16 1 31z" />
<glyph unicode="H" horiz-adv-x="1310" d="M106 0l195 1393h283l-78 -549h532l78 549h281l-195 -1393h-280l82 594h-533l-82 -594h-283z" />
<glyph unicode="I" horiz-adv-x="495" d="M106 0l195 1393h283l-195 -1393h-283z" />
<glyph unicode="J" horiz-adv-x="720" d="M27 -2l57 235q51 -10 115 -10q77 0 126 36t62 126l139 1008h283l-143 -1022q-54 -391 -424 -391q-130 0 -215 18z" />
<glyph unicode="K" horiz-adv-x="1302" d="M106 0l195 1393h283l-88 -633l612 633h336l-567 -588l376 -805h-352l-262 580l-199 -205l-51 -375h-283z" />
<glyph unicode="L" horiz-adv-x="1105" d="M106 0l195 1393h283l-160 -1143h649l-35 -250h-932z" />
<glyph unicode="M" horiz-adv-x="1638" d="M106 0l195 1393h375l215 -924h4l457 924h372l-194 -1393h-281l123 885h-4l-455 -885h-204l-201 885h-4l-123 -885h-275z" />
<glyph unicode="N" horiz-adv-x="1331" d="M106 0l195 1393h283l434 -875h4l123 875h272l-194 -1393h-281l-438 844h-4l-119 -844h-275z" />
<glyph unicode="O" horiz-adv-x="1413" d="M170 542q2 78 14 165q17 124 48.5 225t88 192.5t134 153.5t191.5 98.5t257 36.5q120 0 212 -24.5t152.5 -71.5t99.5 -109t54.5 -143.5t15.5 -168t-14 -189.5q-12 -88 -31.5 -165.5t-50 -152t-71 -135.5t-97 -112.5t-124.5 -87t-156 -55t-191 -19.5t-185.5 19.5t-141 54.5 t-100 87t-65.5 113q-23 62 -33 136q-8 60 -8 121q1 15 1 31zM466 549q0 -12 -1 -23q0 -56 10 -110q12 -66 41 -108t84 -67.5t135 -25.5t142 25.5t103 67.5t70.5 107.5t46 133.5t29.5 158q16 90 16 169v21q-2 87 -25.5 149t-85 97t-161.5 35q-80 0 -141.5 -23.5t-102 -62 t-70 -101.5t-46 -128.5t-29.5 -155.5t-15 -158z" />
<glyph unicode="P" horiz-adv-x="1228" d="M106 0l195 1393h594q217 0 322 -123q82 -96 81 -241q0 -42 -6 -87q-28 -208 -166.5 -329t-355.5 -121h-313l-68 -492h-283zM494 741h280q95 0 156 48.5t74 152.5q3 23 3 44q0 69 -36 106q-47 49 -140 49h-282z" />
<glyph unicode="Q" horiz-adv-x="1413" d="M170 522q0 86 14 185q17 124 48.5 225t88 192.5t134 153.5t191.5 98.5t257 36.5q120 0 212 -24.5t152.5 -71.5t99.5 -109t54.5 -143.5t15.5 -168t-14 -189.5q-39 -281 -172 -445t-348 -182q5 -25 63.5 -38t125.5 -15q117 0 202 10l-34 -252q-75 -9 -144 -9q-41 0 -80 3 q-144 9 -246.5 60.5t-144.5 140.5q-105 6 -186.5 35.5t-135.5 79.5t-89 114.5t-49.5 145.5t-14.5 167zM466 549q-1 -12 -1 -23q0 -56 10 -110q12 -66 41 -108t84 -67.5t135 -25.5t142 25.5t103 67.5t70.5 107.5t46 133.5t29.5 158q16 90 16 169v21q-3 87 -26 149t-84.5 97 t-161.5 35q-80 0 -141.5 -23.5t-102 -62t-70 -101.5t-46 -128.5t-29.5 -155.5t-15 -158z" />
<glyph unicode="R" horiz-adv-x="1259" d="M106 0l195 1393h594q217 0 322 -121q83 -96 83 -245q0 -40 -6 -83q-21 -147 -105.5 -254t-227.5 -147l249 -543h-327l-224 496h-202l-68 -496h-283zM494 748h276q205 0 236 196q3 22 3 41q1 70 -37 108q-48 48 -141 48h-282z" />
<glyph unicode="S" horiz-adv-x="1228" d="M94 55l80 236q257 -62 473 -62q106 0 173.5 44t76.5 114q3 21 0.5 39t-13 33.5t-20.5 27t-31.5 23t-36 18.5t-44.5 16.5t-46.5 14.5t-52 14.5t-51.5 14.5q-357 106 -357 373q0 30 5 63q15 102 65.5 178.5t127.5 121.5t169 67t199 22q232 0 481 -78l-96 -235 q-252 61 -420 61q-103 0 -161.5 -39.5t-67.5 -105.5q-5 -33 9.5 -60.5t36.5 -45t68 -35t80 -27t97 -25.5q91 -22 159.5 -54t120 -81t72.5 -119q13 -43 13 -94q0 -31 -5 -65q-16 -109 -68 -192t-131 -134.5t-177 -77.5t-212 -26q-268 0 -516 75z" />
<glyph unicode="T" horiz-adv-x="1146" d="M227 1141l33 252h1014l-33 -252h-367l-159 -1141h-283l160 1141h-365z" />
<glyph unicode="U" horiz-adv-x="1310" d="M174 492l127 901h283l-127 -901q-5 -45 -5 -86t13.5 -76t38.5 -60.5t71.5 -40t110.5 -14.5q78 0 135 21.5t90.5 61.5t51.5 86.5t26 107.5l127 901h281l-127 -901q-18 -134 -70.5 -233.5t-134 -160t-184.5 -89.5t-230 -29q-259 0 -385 124q-99 97 -100 280q0 51 8 108z " />
<glyph unicode="V" horiz-adv-x="1331" d="M240 1393h313l168 -1051h2l459 1051h297l-641 -1403h-344z" />
<glyph unicode="W" horiz-adv-x="1925" d="M240 1393h313l74 -1047h2l370 1047h330l82 -1047h2l363 1047h297l-537 -1403h-360l-80 950h-4l-347 -950h-360z" />
<glyph unicode="X" horiz-adv-x="1331" d="M49 0l522 723l-305 670h330l197 -439h4l313 439h328l-492 -670l336 -723h-336l-233 492h-4l-347 -492h-313z" />
<glyph unicode="Y" horiz-adv-x="1269" d="M240 1393h321l189 -617h4l358 617h305l-573 -901l-68 -492h-282l67 492z" />
<glyph unicode="Z" horiz-adv-x="1146" d="M61 0l29 205l750 932l2 4h-580l35 252h963l-29 -205l-744 -934v-4h633l-35 -250h-1024z" />
<glyph unicode="[" horiz-adv-x="614" d="M45 -287l277 1966h481l-23 -159h-198l-232 -1649h199l-23 -158h-481z" />
<glyph unicode="\" horiz-adv-x="1105" d="M250 1393h235l564 -1393h-236z" />
<glyph unicode="]" horiz-adv-x="614" d="M6 -287l21 158h200l232 1649h-201l23 159h481l-277 -1966h-479z" />
<glyph unicode="^" horiz-adv-x="778" d="M231 1044l277 390h162l166 -390h-144l-123 244l-194 -244h-144z" />
<glyph unicode="_" horiz-adv-x="1024" d="M47 -283l21 160h850l-21 -160h-850z" />
<glyph unicode="`" horiz-adv-x="557" d="M307 1393h219l78 -246h-143z" />
<glyph unicode="a" d="M137 512q16 114 50 207t88.5 167.5t137.5 116t187 41.5q79 0 152 -30.5t120 -83.5h5l61 102h203l-146 -1032h-266l16 102h-4q-56 -55 -139.5 -88.5t-165.5 -33.5q-311 0 -311 370q0 74 12 162zM420 512q-8 -57 -8 -104q0 -209 163 -209q104 0 193 65l70 496 q-73 63 -174 63q-203 0 -244 -311z" />
<glyph unicode="b" d="M86 -8l201 1442h266l-72 -512h4q58 55 141 88.5t165 33.5q84 0 145.5 -27.5t95.5 -76t53 -115.5q18 -62 17 -135v-11q-2 -79 -12 -167q-16 -114 -50.5 -207.5t-89.5 -168t-138 -115.5t-187 -41q-78 0 -151 30.5t-120 83.5h-4l-61 -102h-203zM389 264q70 -65 176 -65 q199 0 244 313q6 57 6 107q1 27 -1 51q-6 69 -46 111t-115 42q-101 0 -194 -63z" />
<glyph unicode="c" horiz-adv-x="983" d="M133 292q-7 44 -7 92q0 60 11 128q18 125 58 219.5t110.5 166.5t179 109t254.5 37q165 0 353 -49l-78 -213q-76 19 -136 28.5t-89 11t-80 1.5q-120 0 -194.5 -79.5t-94.5 -231.5q-7 -47 -7 -86q1 -91 37 -147q52 -80 171 -80q51 0 80.5 1.5t92 11t144.5 28.5l18 -211 q-201 -49 -366 -49q-146 0 -244.5 37.5t-147.5 107t-65 167.5z" />
<glyph unicode="d" d="M137 512q16 114 50 207t88.5 167.5t137.5 116t187 41.5q79 0 148 -30.5t108 -83.5h4l72 504h266l-201 -1434h-266l14 102h-4q-56 -55 -139.5 -88.5t-165.5 -33.5q-311 0 -311 370q0 74 12 162zM420 512q-8 -57 -8 -104q0 -209 163 -209q104 0 193 65l70 496 q-73 63 -174 63q-203 0 -244 -311z" />
<glyph unicode="e" d="M134 292q-8 45 -8 95q0 59 11 125q14 99 42.5 179t77 147t115.5 112t159.5 69.5t207.5 24.5q111 0 189.5 -26t119.5 -74q42 -48 59 -104q15 -51 15 -112v-15q0 -100 -43 -258h-661q-1 -16 -1 -30q1 -99 53 -158q60 -68 196 -68q171 0 323 41l2 -211q-177 -49 -397 -49 q-144 0 -243.5 37.5t-149.5 107t-67 167.5zM442 623h398q13 45 16 79v6q0 59 -36 95q-38 37 -124 37q-203 0 -254 -217z" />
<glyph unicode="f" horiz-adv-x="706" d="M109 -410l176 1244h-138l23 174l141 16l15 104q23 160 102.5 233t263.5 73q68 0 176 -19l-53 -205q-64 11 -92 11q-68 0 -96 -23t-37 -88l-12 -86h215l-27 -190h-215l-176 -1244h-266z" />
<glyph unicode="g" d="M57 -381l78 211q77 -19 137 -28.5t89.5 -11t78.5 -1.5q129 0 203 58t96 204l6 51h-4q-56 -55 -139.5 -88.5t-165.5 -33.5q-311 0 -311 370q0 74 12 162q16 114 50 207t88.5 167.5t137.5 116t187 41.5q79 0 152 -30.5t120 -83.5h5l61 102h203l-137 -981q-16 -112 -55 -197 t-108 -150.5t-177.5 -99.5t-253.5 -34q-165 0 -353 49zM420 512q-8 -57 -8 -104q0 -209 163 -209q104 0 193 65l70 496q-73 63 -174 63q-203 0 -244 -311z" />
<glyph unicode="h" d="M86 0l201 1434h266l-76 -543h4q166 153 355 153q150 0 216 -91q49 -68 49 -176q0 -36 -5 -77l-99 -700h-266l90 639q3 25 3 47q0 58 -23 91q-32 46 -117 46q-97 0 -227 -78l-105 -745h-266z" />
<glyph unicode="i" horiz-adv-x="440" d="M86 0l143 1024h267l-144 -1024h-266zM242 1110l39 283h266l-39 -283h-266z" />
<glyph unicode="j" horiz-adv-x="522" d="M-125 -412l55 205q44 -10 90 -10q67 0 96 22.5t38 88.5l157 1130h267l-162 -1149q-23 -160 -102 -232.5t-263 -72.5q-90 0 -176 18zM324 1110l38 283h267l-39 -283h-266z" />
<glyph unicode="k" horiz-adv-x="1126" d="M86 0l201 1434h266l-109 -768l437 358h321l-426 -369l303 -655h-313l-195 504l-168 -135l-51 -369h-266z" />
<glyph unicode="l" horiz-adv-x="440" d="M86 0l201 1434h266l-201 -1434h-266z" />
<glyph unicode="m" horiz-adv-x="1699" d="M86 0l143 1024h267l-19 -133h4q160 153 340 153q208 0 250 -170q179 170 379 170q150 0 216 -91q49 -68 49 -176q0 -36 -5 -77l-98 -700h-266l90 639q3 24 3 46q0 138 -141 138q-85 0 -215 -80q-7 -57 -12 -116l-88 -627h-266l90 651q1 16 1 31q0 141 -140 141 q-81 0 -211 -78l-105 -745h-266z" />
<glyph unicode="n" d="M86 0l143 1024h267l-19 -133h4q166 153 355 153q150 0 216 -91q49 -68 49 -176q0 -36 -5 -77l-99 -700h-266l90 639q3 25 3 47q0 58 -23 91q-32 46 -117 46q-97 0 -227 -78l-105 -745h-266z" />
<glyph unicode="o" horiz-adv-x="1126" d="M137 512q74 532 572 532q431 0 430 -403q0 -60 -9 -129q-74 -532 -571 -532q-432 0 -432 403q0 60 10 129zM420 512q-9 -58 -9 -105q-1 -77 23 -127q38 -80 156 -81q119 0 177.5 79.5t82.5 233.5q8 56 8 102q0 80 -24 130q-38 80 -156 79q-118 0 -177 -79.5t-81 -231.5z " />
<glyph unicode="p" d="M27 -410l202 1434h267l-15 -102h4q58 55 141 88.5t165 33.5q84 0 145.5 -27.5t95.5 -76t53 -115.5q18 -62 18 -135q0 -5 -1 -11q-1 -79 -12 -167q-16 -114 -50.5 -207.5t-89.5 -168t-138 -115.5t-187 -41q-77 0 -146 30.5t-108 83.5h-4l-74 -504h-266zM389 264 q70 -65 176 -65q199 0 244 313q6 57 6 107q0 27 -1 51q-6 69 -46 111t-115 42q-101 0 -194 -63z" />
<glyph unicode="q" d="M137 512q16 114 50 207t88.5 167.5t137.5 116t187 41.5q79 0 152 -30.5t120 -83.5h5l61 102h203l-203 -1442h-266l73 512h-4q-56 -55 -139.5 -88.5t-165.5 -33.5q-311 0 -311 370q0 74 12 162zM420 512q-8 -57 -8 -104q0 -209 163 -209q104 0 193 65l70 496 q-73 63 -174 63q-203 0 -244 -311z" />
<glyph unicode="r" horiz-adv-x="757" d="M86 0l143 1024h267l-23 -164h4q66 78 165.5 131t213.5 53l-33 -251q-99 0 -199 -22.5t-171 -55.5l-101 -715h-266z" />
<glyph unicode="s" horiz-adv-x="983" d="M59 29l78 211q188 -47 381 -47q87 0 131.5 31t50.5 67q1 5 1 10q-1 30 -33 49q-38 22 -131 41q-73 13 -127.5 29t-104.5 43t-79 63q-28 37 -42 90q-8 30 -8 66q0 26 4 55q43 307 447 307q236 0 424 -49l-78 -213q-194 49 -361 49q-83 0 -121.5 -26t-44.5 -60 q-1 -6 -1 -12q1 -31 27 -49q32 -22 126 -43q75 -17 116 -28.5t103 -38.5t92 -58q29 -30 49 -84q13 -37 14 -81q0 -20 -3 -42q-23 -164 -141 -246.5t-310 -82.5q-271 0 -459 49z" />
<glyph unicode="t" horiz-adv-x="768" d="M147 834l23 174l141 16l72 287h233l-38 -287h256l-27 -190h-256l-68 -494q-3 -21 -4 -40q-1 -44 21 -70q30 -36 110 -37q46 0 95 10l-5 -205q-88 -18 -213 -18q-173 0 -237 74q-47 54 -48 156q0 38 7 83l76 541h-138z" />
<glyph unicode="u" d="M131 322l98 702h267l-88 -641q-4 -26 -4 -48q0 -55 24 -89q34 -48 117 -47q92 0 225 80l104 745h267l-144 -1024h-266l19 133h-5q-163 -153 -356 -153q-150 0 -215 90q-49 68 -49 175q0 36 6 77z" />
<glyph unicode="v" horiz-adv-x="1146" d="M195 1024h297l124 -741h5l335 741h283l-508 -1034h-323z" />
<glyph unicode="w" horiz-adv-x="1617" d="M195 1024h297l73 -741h4l260 741h258l64 -741h4l272 741h283l-442 -1034h-297l-76 626h-4l-246 -626h-297z" />
<glyph unicode="x" horiz-adv-x="1116" d="M45 0l430 532l-256 492h307l148 -299h4l225 299h277l-394 -483l283 -541h-313l-170 336h-4l-252 -336h-285z" />
<glyph unicode="y" horiz-adv-x="1146" d="M33 -412l55 219q55 -10 96 -10q72 0 137 51.5t105 137.5l-231 1038h297l129 -748h4l331 748h283l-510 -1061q-104 -216 -222.5 -304.5t-291.5 -88.5q-105 0 -182 18z" />
<glyph unicode="z" horiz-adv-x="962" d="M39 0l24 188l611 627l2 4h-492l29 205h829l-28 -190l-602 -625v-4h540l-28 -205h-885z" />
<glyph unicode="{" horiz-adv-x="696" d="M174 629l19 133q31 4 54.5 12.5t40.5 18.5t29.5 28t20 32t14 41t9.5 45.5t8 53.5q8 61 16 193t16 194q9 59 28 105t43.5 77t62 53.5t72.5 34.5t86 19t92 8.5t100 1.5l-17 -112q-24 0 -37 -0.5t-33 -4.5t-31.5 -11.5t-26.5 -22.5t-24.5 -36.5t-18.5 -54t-15 -75.5 q-9 -63 -16.5 -211t-16.5 -211q-8 -59 -28.5 -101.5t-54 -69.5t-69.5 -42.5t-87 -28.5v-4q48 -13 79.5 -28.5t57.5 -42.5t34.5 -69t0.5 -101q-9 -64 -44 -212t-44 -210q-6 -43 -5.5 -75.5t3.5 -54t14 -36.5t20.5 -22.5t29 -11.5t32 -4.5t37.5 -0.5l-17 -113q-85 0 -138.5 4 t-114.5 20.5t-92.5 47.5t-48 88t-5.5 139q9 61 38.5 193t37.5 194q8 66 10 113.5t-26.5 77t-94.5 39.5z" />
<glyph unicode="|" horiz-adv-x="389" d="M76 -205l254 1802h174l-254 -1802h-174z" />
<glyph unicode="}" horiz-adv-x="696" d="M6 -287l14 113q25 0 38 0.5t33.5 4.5t32 11.5t26.5 22.5t24.5 36.5t18 54t14.5 75.5q9 63 17.5 211t17.5 211q8 59 28.5 101t54 69t69 42.5t85.5 28.5v4q-47 13 -78 28.5t-57 42.5t-34.5 69.5t-0.5 101.5q9 64 43 212t43 210q6 43 6 75.5t-3 54t-14.5 36.5t-21 22.5 t-28.5 11.5t-32 4.5t-38 0.5l17 112q85 0 139 -4t115 -20.5t92 -47.5t47 -88t4 -139q-8 -64 -37 -196t-37 -191q-8 -66 -10.5 -113.5t26 -77.5t95.5 -40l-19 -133q-31 -4 -55 -12.5t-41 -18t-29.5 -28t-20 -32t-13.5 -41t-9 -45t-8 -53.5q-8 -57 -17 -189.5t-18 -197.5 q-8 -59 -27 -105t-43 -77t-60.5 -53.5t-71.5 -34.5t-85.5 -19t-91.5 -8.5t-100 -1.5z" />
<glyph unicode="~" horiz-adv-x="940" d="M154 598q127 203 252 203q54 0 191.5 -45t168.5 -45q25 0 39 2t42 18t60 49l58 -80q-101 -163 -224 -163q-39 0 -177 40.5t-177 40.5q-35 0 -69 -16t-89 -67z" />
<glyph unicode="&#xa2;" horiz-adv-x="1048" d="M154 512q32 234 185 377.5t382 152.5l27 187h112l-26 -189q131 -11 268 -75l-62 -205q-131 53 -237 61l-86 -620q100 5 254 63l4 -205q-163 -67 -289 -75l-29 -189h-112l26 187q-228 9 -339.5 151.5t-77.5 378.5zM434 512q-19 -131 26.5 -211.5t143.5 -95.5l86 612 q-101 -13 -169 -94.5t-87 -210.5z" />
<glyph unicode="&#xa3;" horiz-adv-x="1263" d="M82 0l33 236h102l51 368h-102l29 205h102l29 215q15 102 63 178.5t122.5 121.5t164 67t196.5 22q143 0 274 -37t216 -96l-141 -219q-180 100 -367 100q-118 0 -186.5 -46t-79.5 -126l-25 -180h441l-29 -205h-440l-52 -368h686l-32 -236h-1055z" />
<glyph unicode="&#xa5;" horiz-adv-x="1341" d="M262 420l23 158h284l-293 815h322l186 -617h4l361 617h305l-520 -815h283l-23 -158h-324l-59 -420h-281l58 420h-326z" />
<glyph unicode="&#xa8;" horiz-adv-x="935" d="M274 1157l33 236h219l-32 -236h-220zM766 1157l33 236h219l-33 -236h-219z" />
<glyph unicode="&#xa9;" horiz-adv-x="1566" d="M158 696q28 196 147.5 361t298.5 260.5t375 95.5q147 0 273 -56.5t210 -152t122.5 -228.5t17.5 -280q-16 -118 -68 -227.5t-131.5 -197.5t-177.5 -153.5t-213.5 -101.5t-233.5 -36t-223 36t-184 101.5t-133 153.5t-75 197.5t-5 227.5zM279 696q-14 -98 3.5 -190 t62.5 -166.5t111 -130.5t153.5 -86.5t185.5 -30.5q122 0 240.5 48t210.5 129t155 193t80 234q23 163 -38.5 300.5t-188.5 216.5t-291 79q-163 0 -312.5 -79t-249 -216.5t-122.5 -300.5zM535 705q23 170 129.5 261t275.5 91q150 0 254 -82l-74 -121q-86 61 -188 61 q-199 0 -227 -210q-34 -234 163 -234q103 0 207 61l41 -118q-131 -82 -278 -82q-169 0 -249 97t-54 276z" />
<glyph unicode="&#xab;" horiz-adv-x="1427" d="M147 432l23 160l653 344l-35 -236l-348 -188l295 -188l-33 -238zM797 432l22 160l654 344l-35 -236l-348 -188l296 -188l-32 -238z" />
<glyph unicode="&#xad;" horiz-adv-x="1024" d="M147 432l31 221h850l-31 -221h-850z" />
<glyph unicode="&#xae;" horiz-adv-x="1566" d="M158 696q28 196 147.5 361t298.5 260.5t375 95.5q147 0 273 -56.5t210 -152t122.5 -228.5t17.5 -280q-16 -118 -68 -227.5t-131.5 -197.5t-177.5 -153.5t-213.5 -101.5t-233.5 -36t-223 36t-184 101.5t-133 153.5t-75 197.5t-5 227.5zM279 696q-14 -98 3.5 -190 t62.5 -166.5t111 -130.5t153.5 -86.5t185.5 -30.5q122 0 240.5 48t210.5 129t155 193t80 234q23 163 -38.5 300.5t-188.5 216.5t-291 79q-163 0 -312.5 -79t-249 -216.5t-122.5 -300.5zM555 344l98 705h295q132 0 199.5 -64t50.5 -180q-12 -85 -59 -141.5t-119 -77.5 l141 -242h-198l-115 213h-103l-28 -213h-162zM766 698h131q123 0 137 107q7 53 -21 77.5t-85 24.5h-133z" />
<glyph unicode="&#xb4;" horiz-adv-x="557" d="M272 1147l148 246h219l-223 -246h-144z" />
<glyph unicode="&#xb8;" horiz-adv-x="600" d="M55 -395l29 84q67 -13 94 -13q48 0 77 23.5t34 56.5q5 32 -19 55t-73 29l22 160h98l-18 -109q31 -4 56 -11.5t50.5 -23t38 -45t7.5 -69.5q-11 -74 -73 -118t-159 -44q-84 0 -164 25z" />
<glyph unicode="&#xbb;" horiz-adv-x="1427" d="M98 86l33 238l350 188l-297 188l35 236l555 -344l-22 -160zM750 86l32 238l348 188l-296 188l34 236l555 -344l-22 -160z" />
<glyph unicode="&#xc2;" horiz-adv-x="1331" d="M45 0l647 1403h344l248 -1403h-311l-51 315h-441l-137 -315h-299zM571 1495l258 246h158l189 -246h-144l-139 133l-178 -133h-144zM573 551h326l-90 500h-4z" />
<glyph unicode="&#xc7;" horiz-adv-x="1269" d="M169.5 548q2.5 74 14.5 159q17 124 48.5 225t88 192.5t134 153.5t191.5 98.5t257 36.5q243 0 492 -78l-97 -235q-152 37 -236.5 49t-170.5 12q-185 0 -281 -117t-129 -337q-32 -234 31.5 -356t249.5 -122q83 0 171 12.5t253 49.5l28 -236q-250 -72 -481 -75l-12 -89 q167 -20 149 -149q-11 -75 -72 -118.5t-159 -43.5q-81 0 -164 25l29 84q67 -13 96 -13q48 0 77 23.5t32 56.5q5 32 -19.5 55t-73.5 29l21 142q-91 6 -164 29t-124.5 59.5t-88 88.5t-57 111t-28.5 131.5t-5.5 146.5z" />
<glyph unicode="&#xce;" horiz-adv-x="495" d="M104 0l195 1393h283l-195 -1393h-283zM156 1495l258 246h157l189 -246h-144l-139 133l-178 -133h-143z" />
<glyph unicode="&#xd6;" horiz-adv-x="1413" d="M169.5 541.5q2.5 77.5 14.5 165.5q17 124 48.5 225t88 192.5t134 153.5t191.5 98.5t257 36.5q120 0 212 -24.5t152.5 -71.5t99.5 -109t54.5 -143.5t15.5 -168t-14 -189.5q-12 -88 -31.5 -165.5t-50 -152t-71 -135.5t-97 -112.5t-124.5 -87t-156 -55t-191 -19.5 t-185.5 19.5t-141 54.5t-100 87t-65 113t-33.5 135.5t-7.5 152zM465.5 549q-2.5 -68 9.5 -133.5t41 -107.5t84 -67.5t135 -25.5t142 25.5t103 67.5t70.5 107.5t46 133.5t29.5 158q18 103 15.5 190t-25.5 149t-84.5 97t-161.5 35q-80 0 -141.5 -23.5t-102 -62t-70 -101.5 t-46 -128.5t-29.5 -155.5t-15.5 -158zM559 1501l35 236h219l-33 -236h-221zM1051 1501l34 236h220l-33 -236h-221z" />
<glyph unicode="&#xdb;" horiz-adv-x="1310" d="M174 492l127 901h283l-127 -901q-5 -45 -5 -86t13.5 -76t38.5 -60.5t71.5 -40t110.5 -14.5q78 0 135 21.5t90.5 61.5t51.5 86.5t26 107.5l127 901h281l-127 -901q-18 -134 -70.5 -233.5t-134 -160t-184.5 -89.5t-230 -29q-259 0 -385.5 124t-91.5 388zM561 1495l258 246 h158l188 -246h-143l-139 133l-178 -133h-144z" />
<glyph unicode="&#xdc;" horiz-adv-x="1310" d="M174 492l127 901h283l-127 -901q-5 -45 -5 -86t13.5 -76t38.5 -60.5t71.5 -40t110.5 -14.5q78 0 135 21.5t90.5 61.5t51.5 86.5t26 107.5l127 901h281l-127 -901q-18 -134 -70.5 -233.5t-134 -160t-184.5 -89.5t-230 -29q-259 0 -385.5 124t-91.5 388zM508 1501l35 236 h219l-33 -236h-221zM999 1501l35 236h219l-32 -236h-222z" />
<glyph unicode="&#xe2;" d="M137 512q16 114 50 207t88.5 167.5t137.5 116t187 41.5q79 0 152 -30.5t120 -83.5h5l61 102h203l-146 -1032h-266l16 102h-4q-56 -55 -139.5 -88.5t-165.5 -33.5q-373 0 -299 532zM414 1147l258 246h157l189 -246h-144l-139 133l-178 -133h-143zM420 512 q-45 -313 155 -313q104 0 193 65l70 496q-73 63 -174 63q-203 0 -244 -311z" />
<glyph unicode="&#xe7;" horiz-adv-x="983" d="M130.5 307q-12.5 93 6.5 205q18 125 58 219.5t110.5 166.5t179 109t254.5 37q165 0 353 -49l-78 -213q-76 19 -136 28.5t-89 11t-80 1.5q-120 0 -194.5 -79.5t-94.5 -231.5q-23 -153 29.5 -233t171.5 -80q51 0 80.5 1.5t92 11t144.5 28.5l18 -211q-187 -46 -354 -49 l-12 -89q167 -20 149 -149q-11 -74 -72.5 -118t-158.5 -44q-81 0 -164 25l29 84q67 -13 96 -13q48 0 77 23.5t32 56.5q5 32 -19.5 55t-73.5 29l21 144q-120 10 -201.5 52t-121.5 110t-52.5 161z" />
<glyph unicode="&#xee;" horiz-adv-x="440" d="M78 1147l258 246h158l188 -246h-143l-140 133l-178 -133h-143zM86 0l143 1024h267l-144 -1024h-266z" />
<glyph unicode="&#xf6;" horiz-adv-x="1126" d="M137 512q74 532 572 532q495 0 421 -532t-571 -532q-496 0 -422 532zM360 1157l33 236h219l-32 -236h-220zM420 512q-23 -152 14.5 -232.5t155.5 -80.5q119 0 177.5 79.5t82.5 233.5q22 152 -15.5 231.5t-156.5 79.5q-118 0 -177 -79.5t-81 -231.5zM852 1157l33 236h219 l-33 -236h-219z" />
<glyph unicode="&#xfb;" d="M131 322l98 702h267l-88 -641q-14 -89 20.5 -136.5t116.5 -47.5q92 0 225 80l104 745h267l-144 -1024h-266l19 133h-5q-163 -153 -356 -153q-150 0 -215 90.5t-43 251.5zM399 1147l258 246h158l189 -246h-144l-139 133l-178 -133h-144z" />
<glyph unicode="&#xfc;" d="M131 322l98 702h267l-88 -641q-14 -89 20.5 -136.5t116.5 -47.5q92 0 225 80l104 745h267l-144 -1024h-266l19 133h-5q-163 -153 -356 -153q-150 0 -215 90.5t-43 251.5zM348 1157l33 236h219l-33 -236h-219zM840 1157l32 236h220l-33 -236h-219z" />
<glyph unicode="&#x100;" horiz-adv-x="1331" d="M45 0l647 1403h344l248 -1403h-311l-51 315h-441l-137 -315h-299zM549 1540l20 160h666l-21 -160h-665zM573 551h326l-90 500h-4z" />
<glyph unicode="&#x101;" d="M137 512q16 114 50 207t88.5 167.5t137.5 116t187 41.5q79 0 152 -30.5t120 -83.5h5l61 102h203l-146 -1032h-266l16 102h-4q-56 -55 -139.5 -88.5t-165.5 -33.5q-373 0 -299 532zM399 1192l21 160h665l-20 -160h-666zM420 512q-45 -313 155 -313q104 0 193 65l70 496 q-73 63 -174 63q-203 0 -244 -311z" />
<glyph unicode="&#x102;" horiz-adv-x="1331" d="M45 0l647 1403h344l248 -1403h-311l-51 315h-441l-137 -315h-299zM573 551h326l-90 500h-4zM614 1792h109q14 -64 58.5 -101.5t115.5 -37.5q70 0 125.5 38t85.5 101h109q-38 -139 -123.5 -216t-219.5 -77t-198 77t-62 216z" />
<glyph unicode="&#x103;" d="M137 512q16 114 50 207t88.5 167.5t137.5 116t187 41.5q79 0 152 -30.5t120 -83.5h5l61 102h203l-146 -1032h-266l16 102h-4q-56 -55 -139.5 -88.5t-165.5 -33.5q-373 0 -299 532zM420 512q-45 -313 155 -313q104 0 193 65l70 496q-73 63 -174 63q-203 0 -244 -311z M457 1444h108q14 -64 58.5 -101.5t115.5 -37.5q70 0 125.5 38t85.5 101h109q-38 -139 -123.5 -216t-218.5 -77q-134 0 -198 77t-62 216z" />
<glyph unicode="&#x104;" horiz-adv-x="1331" d="M45 0l647 1403h344l248 -1403q-105 -11 -166.5 -73t-70.5 -134q-7 -52 20 -80t84 -28q42 0 96 24l2 -65q-39 -27 -95 -43.5t-107 -16.5q-91 0 -143.5 44t-43.5 116q10 70 66 136.5t147 119.5h-100l-51 315h-441l-137 -315h-299zM573 551h326l-90 500h-2z" />
<glyph unicode="&#x105;" d="M137 512q16 114 50 207t88.5 167.5t137.5 116t187 41.5q79 0 152 -30.5t120 -83.5h5l61 102h203l-146 -1032q-67 -8 -120 -44t-80 -78.5t-33 -84.5q-7 -52 20 -80t84 -28q45 0 99 24l2 -65q-39 -27 -95.5 -43.5t-107.5 -16.5q-52 0 -95.5 15.5t-72 53.5t-21.5 93 q22 139 216 254h-64l16 102h-4q-58 -55 -139.5 -88.5t-163.5 -33.5q-373 0 -299 532zM420 512q-45 -313 155 -313q104 0 193 65l70 496q-73 63 -174 63q-203 0 -244 -311z" />
<glyph unicode="&#x106;" horiz-adv-x="1269" d="M169.5 541q2.5 77 14.5 166q17 124 48.5 225t88 192.5t134 153.5t191.5 98.5t257 36.5q243 0 492 -78l-97 -235q-152 37 -236.5 49t-170.5 12q-185 0 -281 -117t-129 -337q-32 -234 31.5 -356t249.5 -122q83 0 171 12.5t253 49.5l28 -236q-269 -75 -512 -75 q-103 0 -185.5 19.5t-141 54.5t-100 87t-65 112.5t-33.5 135.5t-7.5 152zM856 1477l148 245h219l-224 -245h-143z" />
<glyph unicode="&#x107;" horiz-adv-x="983" d="M133 292q-16 98 4 220q18 125 58 219.5t110.5 166.5t179 109t254.5 37q165 0 353 -49l-78 -213q-76 19 -136 28.5t-89 11t-80 1.5q-120 0 -194.5 -79.5t-94.5 -231.5q-23 -153 29.5 -233t171.5 -80q51 0 80.5 1.5t92 11t144.5 28.5l18 -211q-201 -49 -366 -49 q-146 0 -244.5 37.5t-147.5 107t-65 167.5zM649 1147l148 246h219l-223 -246h-144z" />
<glyph unicode="&#x108;" horiz-adv-x="1269" d="M169.5 541q2.5 77 14.5 166q17 124 48.5 225t88 192.5t134 153.5t191.5 98.5t257 36.5q243 0 492 -78l-97 -235q-152 37 -236.5 49t-170.5 12q-185 0 -281 -117t-129 -337q-32 -234 31.5 -356t249.5 -122q83 0 171 12.5t253 49.5l28 -236q-269 -75 -512 -75 q-103 0 -185.5 19.5t-141 54.5t-100 87t-65 112.5t-33.5 135.5t-7.5 152zM645 1495l258 246h158l188 -246h-143l-139 133l-179 -133h-143z" />
<glyph unicode="&#x109;" horiz-adv-x="983" d="M133 292q-16 98 4 220q18 125 58 219.5t110.5 166.5t179 109t254.5 37q165 0 353 -49l-78 -213q-76 19 -136 28.5t-89 11t-80 1.5q-120 0 -194.5 -79.5t-94.5 -231.5q-23 -153 29.5 -233t171.5 -80q51 0 80.5 1.5t92 11t144.5 28.5l18 -211q-201 -49 -366 -49 q-146 0 -244.5 37.5t-147.5 107t-65 167.5zM422 1147l258 246h158l188 -246h-143l-140 133l-178 -133h-143z" />
<glyph unicode="&#x10a;" horiz-adv-x="1269" d="M169.5 541q2.5 77 14.5 166q17 124 48.5 225t88 192.5t134 153.5t191.5 98.5t257 36.5q243 0 492 -78l-97 -235q-152 37 -236.5 49t-170.5 12q-185 0 -281 -117t-129 -337q-32 -234 31.5 -356t249.5 -122q83 0 171 12.5t253 49.5l28 -236q-269 -75 -512 -75 q-103 0 -185.5 19.5t-141 54.5t-100 87t-65 112.5t-33.5 135.5t-7.5 152zM825 1505l33 236h236l-33 -236h-236z" />
<glyph unicode="&#x10b;" horiz-adv-x="983" d="M133 292q-16 98 4 220q18 125 58 219.5t110.5 166.5t179 109t254.5 37q165 0 353 -49l-78 -213q-76 19 -136 28.5t-89 11t-80 1.5q-120 0 -194.5 -79.5t-94.5 -231.5q-23 -153 29.5 -233t171.5 -80q51 0 80.5 1.5t92 11t144.5 28.5l18 -211q-201 -49 -366 -49 q-146 0 -244.5 37.5t-147.5 107t-65 167.5zM623 1157l32 236h236l-33 -236h-235z" />
<glyph unicode="&#x10c;" horiz-adv-x="1269" d="M169.5 541q2.5 77 14.5 166q17 124 48.5 225t88 192.5t134 153.5t191.5 98.5t257 36.5q243 0 492 -78l-97 -235q-152 37 -236.5 49t-170.5 12q-185 0 -281 -117t-129 -337q-32 -234 31.5 -356t249.5 -122q83 0 171 12.5t253 49.5l28 -236q-269 -75 -512 -75 q-103 0 -185.5 19.5t-141 54.5t-100 87t-65 112.5t-33.5 135.5t-7.5 152zM676 1720h143l139 -133l179 133h143l-258 -245h-158z" />
<glyph unicode="&#x10d;" horiz-adv-x="983" d="M133 292q-16 98 4 220q18 125 58 219.5t110.5 166.5t179 109t254.5 37q165 0 353 -49l-78 -213q-76 19 -136 28.5t-89 11t-80 1.5q-120 0 -194.5 -79.5t-94.5 -231.5q-23 -153 29.5 -233t171.5 -80q51 0 80.5 1.5t92 11t144.5 28.5l18 -211q-201 -49 -366 -49 q-146 0 -244.5 37.5t-147.5 107t-65 167.5zM485 1393h144l139 -133l178 133h144l-259 -246h-157z" />
<glyph unicode="&#x10e;" horiz-adv-x="1331" d="M106 0l195 1393h520q117 0 208.5 -23.5t151.5 -67t100 -105t56 -138t18 -165.5t-14 -187q-17 -125 -49 -227t-88.5 -193t-134 -153t-190 -98t-252.5 -36h-521zM424 250h238q78 0 137.5 21.5t100 59t69.5 97t45.5 125.5t29.5 154q20 139 10 235.5t-75 147.5t-193 51h-237z M553 1720h143l140 -133l178 133h143l-258 -245h-158z" />
<glyph unicode="&#x10f;" d="M137 512q16 114 50 207t88.5 167.5t137.5 116t187 41.5q79 0 148 -30.5t108 -83.5h4l72 504h266l-201 -1434h-266l14 102h-4q-56 -55 -139.5 -88.5t-165.5 -33.5q-373 0 -299 532zM420 512q-45 -313 155 -313q104 0 193 65l70 496q-73 63 -174 63q-203 0 -244 -311z M1247 1249l25 185h235l-24 -185l-150 -170h-82l72 170h-76z" />
<glyph unicode="&#x110;" horiz-adv-x="1361" d="M92 627l23 159h133l84 607h520q117 0 208.5 -23.5t151.5 -67t100 -105t56 -138t18 -165.5t-14 -187q-17 -125 -49 -227t-88.5 -193t-134.5 -153t-190.5 -98t-252.5 -36h-520l88 627h-133zM455 250h237q96 0 165 31.5t111.5 95t66.5 141.5t40 189q20 139 10 235.5 t-75 147.5t-193 51h-237l-52 -355h226l-23 -159h-225z" />
<glyph unicode="&#x111;" d="M137 512q16 114 50 207t88.5 167.5t137.5 116t187 41.5q79 0 148 -30.5t108 -83.5h4l29 198h-215l22 160h215l21 146h266l-20 -146h143l-23 -160h-143l-158 -1128h-266l14 102h-4q-56 -55 -139.5 -88.5t-165.5 -33.5q-373 0 -299 532zM420 512q-45 -313 155 -313 q104 0 193 65l70 496q-73 63 -174 63q-203 0 -244 -311z" />
<glyph unicode="&#x112;" horiz-adv-x="1146" d="M106 0l195 1393h942l-33 -252h-661l-43 -297h569l-37 -250h-567l-47 -344h670l-35 -250h-953zM473 1540l21 160h665l-20 -160h-666z" />
<glyph unicode="&#x113;" d="M134 292q-17 98 3 220q14 99 42.5 179t77 147t115.5 112t159.5 69.5t207.5 24.5q111 0 189.5 -26t120 -73.5t58.5 -104t15 -127.5q0 -100 -43 -258h-661q-9 -120 51.5 -188t196.5 -68q171 0 323 41l2 -211q-177 -49 -397 -49q-144 0 -243.5 37.5t-149.5 107t-67 167.5z M414 1192l20 160h666l-21 -160h-665zM442 623h398q13 45 16 79q2 64 -35.5 101t-124.5 37q-203 0 -254 -217z" />
<glyph unicode="&#x114;" horiz-adv-x="1146" d="M106 0l195 1393h942l-33 -252h-661l-43 -297h569l-37 -250h-567l-47 -344h670l-35 -250h-953zM543 1792h108q14 -64 58.5 -101.5t115.5 -37.5q70 0 125.5 38t85.5 101h109q-38 -139 -123.5 -216t-218.5 -77q-134 0 -198 77t-62 216z" />
<glyph unicode="&#x115;" d="M134 292q-17 98 3 220q14 99 42.5 179t77 147t115.5 112t159.5 69.5t207.5 24.5q111 0 189.5 -26t120 -73.5t58.5 -104t15 -127.5q0 -100 -43 -258h-661q-9 -120 51.5 -188t196.5 -68q171 0 323 41l2 -211q-177 -49 -397 -49q-144 0 -243.5 37.5t-149.5 107t-67 167.5z M442 623h398q13 45 16 79q2 64 -35.5 101t-124.5 37q-203 0 -254 -217zM489 1444h109q14 -64 58.5 -101.5t115.5 -37.5q70 0 125.5 38t85.5 101h109q-38 -139 -123.5 -216t-218.5 -77q-134 0 -198.5 77.5t-62.5 215.5z" />
<glyph unicode="&#x116;" horiz-adv-x="1146" d="M106 0l195 1393h942l-33 -252h-661l-43 -297h569l-37 -250h-567l-47 -344h670l-35 -250h-953zM672 1505l33 236h235l-33 -236h-235z" />
<glyph unicode="&#x117;" d="M134 292q-17 98 3 220q14 99 42.5 179t77 147t115.5 112t159.5 69.5t207.5 24.5q111 0 189.5 -26t120 -73.5t58.5 -104t15 -127.5q0 -100 -43 -258h-661q-9 -120 51.5 -188t196.5 -68q171 0 323 41l2 -211q-177 -49 -397 -49q-144 0 -243.5 37.5t-149.5 107t-67 167.5z M442 623h398q13 45 16 79q2 64 -35.5 101t-124.5 37q-203 0 -254 -217zM629 1157l33 236h235l-33 -236h-235z" />
<glyph unicode="&#x118;" horiz-adv-x="1146" d="M106 0l195 1393h942l-33 -252h-661l-43 -297h569l-37 -250h-567l-47 -344h670l-35 -250q-66 -47 -107 -102t-49 -105q-7 -52 20.5 -80t84.5 -28q40 0 98 24l2 -65q-39 -27 -95.5 -43.5t-107.5 -16.5q-91 0 -144 44.5t-44 115.5q10 70 65.5 135.5t147.5 120.5h-824z" />
<glyph unicode="&#x119;" d="M134 292q-17 98 3 220q14 99 42.5 179t77 147t115.5 112t159.5 69.5t207.5 24.5q94 0 164.5 -18.5t114 -50t69.5 -78.5t33.5 -99t3.5 -116q-7 -81 -45 -227h-661q-9 -120 51.5 -188t196.5 -68q171 0 323 41l2 -211q-65 -47 -106 -102t-49 -105q-8 -53 19.5 -82t84.5 -29 q38 0 98 25l2 -64q-39 -27 -96 -43t-108 -16q-91 0 -143 44.5t-42 115.5q7 58 51 115.5t115 105.5q-109 -14 -223 -14q-144 0 -243.5 37.5t-149.5 107t-67 167.5zM442 623h398q13 45 16 79q2 64 -35.5 101t-124.5 37q-203 0 -254 -217z" />
<glyph unicode="&#x11a;" horiz-adv-x="1146" d="M106 0l195 1393h942l-33 -252h-661l-43 -297h569l-37 -250h-567l-47 -344h670l-35 -250h-953zM526 1720h144l139 -133l178 133h143l-258 -245h-157z" />
<glyph unicode="&#x11b;" d="M134 292q-17 98 3 220q14 99 42.5 179t77 147t115.5 112t159.5 69.5t207.5 24.5q111 0 189.5 -26t120 -73.5t58.5 -104t15 -127.5q0 -100 -43 -258h-661q-9 -120 51.5 -188t196.5 -68q171 0 323 41l2 -211q-177 -49 -397 -49q-144 0 -243.5 37.5t-149.5 107t-67 167.5z M442 623h398q13 45 16 79q2 64 -35.5 101t-124.5 37q-203 0 -254 -217zM475 1393h143l140 -133l178 133h143l-258 -246h-157z" />
<glyph unicode="&#x11c;" horiz-adv-x="1310" d="M169.5 541q2.5 77 14.5 166q17 124 48.5 225t88 192.5t134 153.5t191.5 98.5t257 36.5q239 0 488 -78l-97 -235q-155 37 -236.5 49t-166.5 12q-185 0 -281 -117t-129 -337q-32 -234 31.5 -356t249.5 -122q98 0 196 39l31 228h-215l37 252h496l-95 -672 q-145 -49 -262 -72.5t-248 -23.5q-103 0 -185.5 19.5t-141 54.5t-100 87t-65 112.5t-33.5 135.5t-7.5 152zM629 1495l258 246h157l189 -246h-143l-140 133l-178 -133h-143z" />
<glyph unicode="&#x11d;" d="M57 -381l78 211q77 -19 137 -28.5t89.5 -11t78.5 -1.5q129 0 203 58t96 204l6 51h-4q-56 -55 -139.5 -88.5t-165.5 -33.5q-373 0 -299 532q16 114 50 207t88.5 167.5t137.5 116t187 41.5q79 0 152 -30.5t120 -83.5h5l61 102h203l-137 -981q-16 -112 -55 -197t-108 -150.5 t-177.5 -99.5t-253.5 -34q-165 0 -353 49zM420 512q-45 -313 155 -313q104 0 193 65l70 496q-73 63 -174 63q-203 0 -244 -311zM436 1147l258 246h158l188 -246h-143l-139 133l-178 -133h-144z" />
<glyph unicode="&#x11e;" horiz-adv-x="1310" d="M169.5 541q2.5 77 14.5 166q17 124 48.5 225t88 192.5t134 153.5t191.5 98.5t257 36.5q239 0 488 -78l-97 -235q-155 37 -236.5 49t-166.5 12q-185 0 -281 -117t-129 -337q-32 -234 31.5 -356t249.5 -122q98 0 196 39l31 228h-215l37 252h496l-95 -672 q-145 -49 -262 -72.5t-248 -23.5q-103 0 -185.5 19.5t-141 54.5t-100 87t-65 112.5t-33.5 135.5t-7.5 152zM668 1792h108q14 -64 58.5 -101.5t115.5 -37.5q70 0 125.5 38t85.5 101h109q-38 -139 -123.5 -216t-218.5 -77q-134 0 -198 77t-62 216z" />
<glyph unicode="&#x11f;" d="M57 -381l78 211q77 -19 137 -28.5t89.5 -11t78.5 -1.5q129 0 203 58t96 204l6 51h-4q-56 -55 -139.5 -88.5t-165.5 -33.5q-373 0 -299 532q16 114 50 207t88.5 167.5t137.5 116t187 41.5q79 0 152 -30.5t120 -83.5h5l61 102h203l-137 -981q-16 -112 -55 -197t-108 -150.5 t-177.5 -99.5t-253.5 -34q-165 0 -353 49zM420 512q-45 -313 155 -313q104 0 193 65l70 496q-73 63 -174 63q-203 0 -244 -311zM463 1444h108q14 -64 58.5 -101.5t115.5 -37.5q70 0 125.5 38t85.5 101h109q-38 -139 -123.5 -216t-218.5 -77q-134 0 -198 77t-62 216z" />
<glyph unicode="&#x120;" horiz-adv-x="1310" d="M169.5 541q2.5 77 14.5 166q17 124 48.5 225t88 192.5t134 153.5t191.5 98.5t257 36.5q239 0 488 -78l-97 -235q-155 37 -236.5 49t-166.5 12q-185 0 -281 -117t-129 -337q-32 -234 31.5 -356t249.5 -122q98 0 196 39l31 228h-215l37 252h496l-95 -672 q-145 -49 -262 -72.5t-248 -23.5q-103 0 -185.5 19.5t-141 54.5t-100 87t-65 112.5t-33.5 135.5t-7.5 152zM786 1505l33 236h236l-33 -236h-236z" />
<glyph unicode="&#x121;" d="M57 -381l78 211q77 -19 137 -28.5t89.5 -11t78.5 -1.5q129 0 203 58t96 204l6 51h-4q-56 -55 -139.5 -88.5t-165.5 -33.5q-373 0 -299 532q16 114 50 207t88.5 167.5t137.5 116t187 41.5q79 0 152 -30.5t120 -83.5h5l61 102h203l-137 -981q-16 -112 -55 -197t-108 -150.5 t-177.5 -99.5t-253.5 -34q-165 0 -353 49zM420 512q-45 -313 155 -313q104 0 193 65l70 496q-73 63 -174 63q-203 0 -244 -311zM598 1157l33 236h235l-32 -236h-236z" />
<glyph unicode="&#x122;" horiz-adv-x="1310" d="M169.5 541q2.5 77 14.5 166q17 124 48.5 225t88 192.5t134 153.5t191.5 98.5t257 36.5q239 0 488 -78l-97 -235q-155 37 -236.5 49t-166.5 12q-185 0 -281 -117t-129 -337q-32 -234 31.5 -356t249.5 -122q98 0 196 39l31 228h-215l37 252h496l-95 -672 q-145 -49 -262 -72.5t-248 -23.5q-103 0 -185.5 19.5t-141 54.5t-100 87t-65 112.5t-33.5 135.5t-7.5 152zM580 -266l24 184h236l-25 -184l-149 -170h-82l71 170h-75z" />
<glyph unicode="&#x123;" d="M57 -381l78 211q77 -19 137 -28.5t89.5 -11t78.5 -1.5q129 0 203 58t96 204l6 51h-4q-56 -55 -139.5 -88.5t-165.5 -33.5q-373 0 -299 532q16 114 50 207t88.5 167.5t137.5 116t187 41.5q79 0 152 -30.5t120 -83.5h5l61 102h203l-137 -981q-16 -112 -55 -197t-108 -150.5 t-177.5 -99.5t-253.5 -34q-165 0 -353 49zM420 512q-45 -313 155 -313q104 0 193 65l70 496q-73 63 -174 63q-203 0 -244 -311zM625 1167l26 185l150 168h82l-74 -168h78l-27 -185h-235z" />
<glyph unicode="&#x124;" horiz-adv-x="1310" d="M106 0l195 1393h283l-78 -549h532l78 549h281l-195 -1393h-280l82 594h-533l-82 -594h-283zM561 1495l258 246h158l188 -246h-143l-139 133l-178 -133h-144z" />
<glyph unicode="&#x125;" d="M78 1536l258 246h158l188 -246h-143l-140 133l-178 -133h-143zM86 0l201 1434h266l-76 -543h4q166 153 355 153q151 0 216.5 -91t43.5 -253l-99 -700h-266l90 639q12 92 -20 138t-117 46q-97 0 -227 -78l-105 -745h-266z" />
<glyph unicode="&#x126;" horiz-adv-x="1310" d="M106 0l148 1047h-143l22 159h143l25 187h283l-27 -187h533l26 187h281l-25 -187h144l-23 -159h-143l-148 -1047h-280l82 594h-533l-82 -594h-283zM506 844h532l29 203h-532z" />
<glyph unicode="&#x127;" d="M86 0l158 1128h-144l23 160h143l21 146h266l-21 -146h216l-23 -160h-215l-33 -237h4q166 153 355 153q151 0 216.5 -91t43.5 -253l-99 -700h-266l90 639q12 92 -20 138t-117 46q-97 0 -227 -78l-105 -745h-266z" />
<glyph unicode="&#x128;" horiz-adv-x="495" d="M104 0l195 1393h283l-195 -1393h-283zM119 1546q114 187 248 187q42 0 92 -22.5t94 -45.5t72 -23q64 0 143 84l57 -79q-104 -164 -223 -164q-39 0 -127 42t-127 42q-35 0 -68 -17t-90 -69z" />
<glyph unicode="&#x129;" horiz-adv-x="440" d="M41 1198q114 186 248 186q43 0 92.5 -22.5t93.5 -45t72 -22.5q64 0 143 84l58 -80q-103 -163 -224 -163q-39 0 -127 42t-127 42q-35 0 -67.5 -17t-89.5 -69zM86 0l143 1024h267l-144 -1024h-266z" />
<glyph unicode="&#x12a;" horiz-adv-x="495" d="M98 0l195 1393h282l-194 -1393h-283zM133 1540l21 160h665l-20 -160h-666z" />
<glyph unicode="&#x12b;" horiz-adv-x="440" d="M55 1192l21 160h665l-20 -160h-666zM86 0l143 1024h267l-144 -1024h-266z" />
<glyph unicode="&#x12c;" horiz-adv-x="495" d="M111 0l194 1393h283l-195 -1393h-282zM197 1792h108q14 -64 58.5 -101.5t115.5 -37.5q70 0 125.5 38t85.5 101h109q-38 -139 -123.5 -216t-218.5 -77q-134 0 -198 77t-62 216z" />
<glyph unicode="&#x12d;" horiz-adv-x="440" d="M86 0l143 1024h267l-144 -1024h-266zM121 1444h108q14 -64 58.5 -101.5t115.5 -37.5q70 0 125.5 38t85.5 101h109q-38 -139 -123.5 -216t-218.5 -77q-134 0 -198 77t-62 216z" />
<glyph unicode="&#x12e;" horiz-adv-x="495" d="M-18 -256q10 70 65 136.5t146 119.5h-87l195 1393h283l-195 -1393q-97 -14 -155.5 -77t-67.5 -130q-7 -52 20 -80t84 -28q43 0 97 24l2 -65q-39 -27 -95.5 -43.5t-107.5 -16.5q-91 0 -142 44t-42 116z" />
<glyph unicode="&#x12f;" horiz-adv-x="440" d="M-39 -256q10 70 65 136t146 120q-21 8 -82 33l139 991h267l-144 -1024q-44 -6 -82.5 -30t-63.5 -55t-40.5 -63t-18.5 -59q-7 -52 19.5 -80t83.5 -28q40 0 98 24l2 -65q-39 -27 -95.5 -43.5t-107.5 -16.5q-91 0 -143 45t-43 115zM248 1151l39 283h266l-39 -283h-266z" />
<glyph unicode="&#x130;" horiz-adv-x="495" d="M106 0l195 1393h283l-195 -1393h-283zM342 1505l33 236h235l-32 -236h-236z" />
<glyph unicode="&#x131;" horiz-adv-x="440" d="M86 0l143 1024h267l-144 -1024h-266z" />
<glyph unicode="&#x132;" horiz-adv-x="1218" d="M106 0l195 1393h283l-195 -1393h-283zM524 -2l58 235q49 -10 114 -10q77 0 125.5 36t61.5 126l141 1008h281l-144 -1022q-54 -391 -424 -391q-131 0 -213 18z" />
<glyph unicode="&#x133;" horiz-adv-x="878" d="M86 0l143 1024h267l-144 -1024h-266zM231 -412l54 205q46 -10 92 -10q67 0 95.5 22.5t37.5 88.5l160 1130h266l-164 -1149q-21 -159 -100.5 -232t-263.5 -73q-92 0 -177 18zM242 1110l39 283h266l-39 -283h-266zM682 1110l39 283h266l-39 -283h-266z" />
<glyph unicode="&#x134;" horiz-adv-x="720" d="M27 -2l57 235q51 -10 115 -10q77 0 126 36t62 126l139 1008h283l-143 -1022q-54 -391 -424 -391q-130 0 -215 18zM381 1495l258 246h158l188 -246h-143l-140 133l-178 -133h-143z" />
<glyph unicode="&#x135;" horiz-adv-x="522" d="M-125 -412l55 205q44 -10 90 -10q67 0 96 22.5t38 88.5l157 1130h267l-162 -1149q-23 -160 -102 -232.5t-263 -72.5q-90 0 -176 18zM160 1147l258 246h157l189 -246h-143l-140 133l-178 -133h-143z" />
<glyph unicode="&#x136;" horiz-adv-x="1302" d="M106 0l195 1393h283l-88 -633l612 633h336l-567 -588l376 -805h-352l-262 580l-199 -205l-51 -375h-283zM489 -252l25 184h236l-25 -184l-150 -170h-81l71 170h-76z" />
<glyph unicode="&#x137;" horiz-adv-x="1126" d="M86 0l201 1434h266l-109 -768l437 358h321l-426 -369l303 -655h-313l-195 504l-168 -135l-51 -369h-266zM395 -266l25 184h235l-24 -184l-150 -170h-82l72 170h-76z" />
<glyph unicode="&#x138;" horiz-adv-x="1126" d="M86 0l143 1024h267l-52 -358l437 358h321l-426 -369l303 -655h-313l-195 504l-168 -135l-51 -369h-266z" />
<glyph unicode="&#x139;" horiz-adv-x="1105" d="M106 0l195 1393h283l-160 -1143h649l-35 -250h-932zM379 1477l147 245h219l-223 -245h-143z" />
<glyph unicode="&#x13a;" horiz-adv-x="440" d="M86 0l201 1434h266l-201 -1434h-266zM311 1536l148 246h219l-223 -246h-144z" />
<glyph unicode="&#x13b;" horiz-adv-x="1105" d="M106 0l195 1393h283l-160 -1143h649l-35 -250h-932zM418 -250l24 184h236l-25 -184l-149 -170h-82l72 170h-76z" />
<glyph unicode="&#x13c;" horiz-adv-x="440" d="M66 -266l24 184h236l-25 -184l-149 -170h-82l71 170h-75zM86 0l201 1434h266l-201 -1434h-266z" />
<glyph unicode="&#x13d;" horiz-adv-x="1105" d="M106 0l195 1393h283l-160 -1143h649l-35 -250h-932zM700 1208l25 185h236l-25 -185l-150 -170h-81l71 170h-76z" />
<glyph unicode="&#x13e;" horiz-adv-x="546" d="M86 0l201 1434h266l-201 -1434h-266zM645 1249l25 185h235l-24 -185l-150 -170h-82l72 170h-76z" />
<glyph unicode="&#x13f;" horiz-adv-x="1105" d="M106 0l195 1393h283l-160 -1143h649l-35 -250h-932zM651 645l39 266h236l-39 -266h-236z" />
<glyph unicode="&#x140;" horiz-adv-x="747" d="M86 0l201 1434h266l-201 -1434h-266zM528 604l39 266h236l-39 -266h-236z" />
<glyph unicode="&#x141;" horiz-adv-x="1126" d="M72 633l22 158l148 32l80 570h282l-72 -504l224 51l-23 -160l-221 -51l-68 -479h650l-35 -250h-932l92 666z" />
<glyph unicode="&#x142;" horiz-adv-x="522" d="M39 586l22 159l177 41l90 648h266l-80 -578l174 43l-22 -160l-174 -43l-99 -696h-266l88 629z" />
<glyph unicode="&#x143;" horiz-adv-x="1331" d="M106 0l195 1393h283l434 -875h4l123 875h272l-194 -1393h-281l-438 844h-4l-119 -844h-275zM803 1477l147 245h219l-223 -245h-143z" />
<glyph unicode="&#x144;" d="M86 0l143 1024h267l-19 -133h4q166 153 355 153q151 0 216.5 -91t43.5 -253l-99 -700h-266l90 639q12 92 -20 138t-117 46q-97 0 -227 -78l-105 -745h-266zM616 1147l148 246h219l-223 -246h-144z" />
<glyph unicode="&#x145;" horiz-adv-x="1331" d="M106 0l195 1393h283l434 -875h4l123 875h272l-194 -1393h-281l-438 844h-4l-119 -844h-275zM512 -266l25 184h235l-24 -184l-150 -170h-82l72 170h-76z" />
<glyph unicode="&#x146;" d="M86 0l143 1024h267l-19 -133h4q166 153 355 153q151 0 216.5 -91t43.5 -253l-99 -700h-266l90 639q12 92 -20 138t-117 46q-97 0 -227 -78l-105 -745h-266zM584 1147l26 184l150 168h82l-74 -168h78l-27 -184h-235z" />
<glyph unicode="&#x147;" horiz-adv-x="1331" d="M106 0l195 1393h283l434 -875h4l123 875h272l-194 -1393h-281l-438 844h-4l-119 -844h-275zM604 1720h144l139 -133l178 133h143l-258 -245h-157z" />
<glyph unicode="&#x148;" d="M86 0l143 1024h267l-19 -133h4q166 153 355 153q151 0 216.5 -91t43.5 -253l-99 -700h-266l90 639q12 92 -20 138t-117 46q-97 0 -227 -78l-105 -745h-266zM434 1393h144l139 -133l178 133h143l-258 -246h-157z" />
<glyph unicode="&#x149;" d="M86 0l143 1024h267l-19 -133h4q166 153 355 153q151 0 216.5 -91t43.5 -253l-99 -700h-266l90 639q12 92 -20 138t-117 46q-97 0 -227 -78l-105 -745h-266zM281 1249l26 185h236l-27 -185l-149 -168h-82l73 168h-77z" />
<glyph unicode="&#x14a;" horiz-adv-x="1331" d="M106 0l195 1393h283l434 -875h4l123 875h272l-213 -1524q-15 -105 -50.5 -168.5t-112 -99t-201.5 -35.5q-87 0 -178 16l53 205q62 -10 92 -10q67 0 96 23t39 89l14 111l-452 844h-4l-119 -844h-275z" />
<glyph unicode="&#x14b;" d="M86 0l143 1024h267l-19 -133h4q166 153 355 153q151 0 216.5 -91t43.5 -253l-117 -825q-23 -160 -102 -232.5t-263 -72.5q-92 0 -178 18l56 205q44 -10 90 -10q68 0 97 22.5t38 88.5l104 745q12 92 -20 138t-117 46q-97 0 -227 -78l-105 -745h-266z" />
<glyph unicode="&#x14c;" horiz-adv-x="1413" d="M169.5 541.5q2.5 77.5 14.5 165.5q17 124 48.5 225t88 192.5t134 153.5t191.5 98.5t257 36.5q120 0 212 -24.5t152.5 -71.5t99.5 -109t54.5 -143.5t15.5 -168t-14 -189.5q-12 -88 -31.5 -165.5t-50 -152t-71 -135.5t-97 -112.5t-124.5 -87t-156 -55t-191 -19.5 t-185.5 19.5t-141 54.5t-100 87t-65 113t-33.5 135.5t-7.5 152zM465.5 549q-2.5 -68 9.5 -133.5t41 -107.5t84 -67.5t135 -25.5t142 25.5t103 67.5t70.5 107.5t46 133.5t29.5 158q18 103 15.5 190t-25.5 149t-84.5 97t-161.5 35q-80 0 -141.5 -23.5t-102 -62t-70 -101.5 t-46 -128.5t-29.5 -155.5t-15.5 -158zM590 1540l20 160h666l-21 -160h-665z" />
<glyph unicode="&#x14d;" horiz-adv-x="1126" d="M137 512q74 532 572 532q495 0 421 -532t-571 -532q-496 0 -422 532zM397 1192l21 160h665l-20 -160h-666zM420 512q-23 -152 14.5 -232.5t155.5 -80.5q119 0 177.5 79.5t82.5 233.5q22 152 -15.5 231.5t-156.5 79.5q-118 0 -177 -79.5t-81 -231.5z" />
<glyph unicode="&#x14e;" horiz-adv-x="1413" d="M169.5 541.5q2.5 77.5 14.5 165.5q17 124 48.5 225t88 192.5t134 153.5t191.5 98.5t257 36.5q120 0 212 -24.5t152.5 -71.5t99.5 -109t54.5 -143.5t15.5 -168t-14 -189.5q-12 -88 -31.5 -165.5t-50 -152t-71 -135.5t-97 -112.5t-124.5 -87t-156 -55t-191 -19.5 t-185.5 19.5t-141 54.5t-100 87t-65 113t-33.5 135.5t-7.5 152zM465.5 549q-2.5 -68 9.5 -133.5t41 -107.5t84 -67.5t135 -25.5t142 25.5t103 67.5t70.5 107.5t46 133.5t29.5 158q18 103 15.5 190t-25.5 149t-84.5 97t-161.5 35q-80 0 -141.5 -23.5t-102 -62t-70 -101.5 t-46 -128.5t-29.5 -155.5t-15.5 -158zM655 1792h109q14 -64 58.5 -101.5t115.5 -37.5q70 0 125.5 38t85.5 101h108q-38 -139 -123.5 -216t-218.5 -77q-134 0 -198 77t-62 216z" />
<glyph unicode="&#x14f;" horiz-adv-x="1126" d="M137 512q74 532 572 532q495 0 421 -532t-571 -532q-496 0 -422 532zM420 512q-23 -152 14.5 -232.5t155.5 -80.5q119 0 177.5 79.5t82.5 233.5q22 152 -15.5 231.5t-156.5 79.5q-118 0 -177 -79.5t-81 -231.5zM463 1444h108q14 -64 58.5 -101.5t115.5 -37.5 q70 0 125.5 38t85.5 101h109q-38 -139 -123.5 -216t-218.5 -77q-134 0 -198 77t-62 216z" />
<glyph unicode="&#x150;" horiz-adv-x="1413" d="M169.5 541.5q2.5 77.5 14.5 165.5q17 124 48.5 225t88 192.5t134 153.5t191.5 98.5t257 36.5q120 0 212 -24.5t152.5 -71.5t99.5 -109t54.5 -143.5t15.5 -168t-14 -189.5q-12 -88 -31.5 -165.5t-50 -152t-71 -135.5t-97 -112.5t-124.5 -87t-156 -55t-191 -19.5 t-185.5 19.5t-141 54.5t-100 87t-65 113t-33.5 135.5t-7.5 152zM465.5 549q-2.5 -68 9.5 -133.5t41 -107.5t84 -67.5t135 -25.5t142 25.5t103 67.5t70.5 107.5t46 133.5t29.5 158q18 103 15.5 190t-25.5 149t-84.5 97t-161.5 35q-80 0 -141.5 -23.5t-102 -62t-70 -101.5 t-46 -128.5t-29.5 -155.5t-15.5 -158zM711 1495l147 246h174l-178 -246h-143zM961 1495l147 246h174l-178 -246h-143z" />
<glyph unicode="&#x151;" horiz-adv-x="1126" d="M137 512q74 532 572 532q495 0 421 -532t-571 -532q-496 0 -422 532zM420 512q-23 -152 14.5 -232.5t155.5 -80.5q119 0 177.5 79.5t82.5 233.5q22 152 -15.5 231.5t-156.5 79.5q-118 0 -177 -79.5t-81 -231.5zM514 1147l148 246h174l-179 -246h-143zM764 1147l147 246 h174l-178 -246h-143z" />
<glyph unicode="&#x152;" horiz-adv-x="2060" d="M169.5 557q3.5 70 14.5 150q17 124 48.5 225t88 192.5t134 153.5t191.5 98.5t257 36.5q212 0 299 -153h2q11 66 19 133h936l-35 -252h-662l-41 -297h568l-35 -250h-570l-47 -344h670l-33 -250h-946q13 77 19 137h-3q-98 -157 -342 -157q-109 0 -196 22.5t-145 60.5 t-98 94t-61 117.5t-28.5 137t-4 145.5zM465.5 549q-2.5 -68 9.5 -133.5t41 -107.5t84 -67.5t135 -25.5t142 25.5t103 67.5t71 108.5t47 135.5t30 161q18 103 14.5 188.5t-27.5 147t-85.5 95.5t-159.5 34q-80 0 -141.5 -23.5t-102 -62t-70 -101.5t-46 -128.5t-29.5 -155.5 t-15.5 -158z" />
<glyph unicode="&#x153;" horiz-adv-x="1798" d="M137 512q74 532 572 532q245 0 335 -163q143 163 408 163q440 0 381 -407q-9 -67 -41 -182h-659q-11 -120 49 -188t196 -68q172 0 324 41l2 -211q-177 -49 -395 -49q-274 0 -369 161q-135 -161 -381 -161q-496 0 -422 532zM420 512q-23 -152 14.5 -232.5t155.5 -80.5 t177.5 79t82.5 234q22 152 -15.5 231.5t-156.5 79.5q-118 0 -177 -79.5t-81 -231.5zM1155 623h399q12 46 15 61q8 71 -29 113.5t-131 42.5q-203 0 -254 -217z" />
<glyph unicode="&#x154;" horiz-adv-x="1259" d="M106 0l195 1393h594q217 0 322 -121t77 -328q-21 -147 -105.5 -254t-227.5 -147l249 -543h-327l-224 496h-202l-68 -496h-283zM494 748h276q205 0 236 196q13 101 -34.5 149t-140.5 48h-282zM707 1477l147 245h219l-223 -245h-143z" />
<glyph unicode="&#x155;" horiz-adv-x="757" d="M86 0l143 1024h267l-23 -164h4q66 78 165.5 131t213.5 53l-33 -251q-99 0 -199 -22.5t-171 -55.5l-101 -715h-266zM479 1147l148 246h219l-223 -246h-144z" />
<glyph unicode="&#x156;" horiz-adv-x="1259" d="M106 0l195 1393h594q217 0 322 -121t77 -328q-21 -147 -105.5 -254t-227.5 -147l249 -543h-327l-224 496h-202l-68 -496h-283zM494 -254l24 184h236l-25 -184l-149 -170h-82l71 170h-75zM494 748h276q205 0 236 196q13 101 -34.5 149t-140.5 48h-282z" />
<glyph unicode="&#x157;" horiz-adv-x="757" d="M63 -266l25 184h236l-25 -184l-149 -170h-82l71 170h-76zM86 0l143 1024h267l-23 -164h4q66 78 165.5 131t213.5 53l-33 -251q-99 0 -199 -22.5t-171 -55.5l-101 -715h-266z" />
<glyph unicode="&#x158;" horiz-adv-x="1259" d="M106 0l195 1393h594q217 0 322 -121t77 -328q-21 -147 -105.5 -254t-227.5 -147l249 -543h-327l-224 496h-202l-68 -496h-283zM494 748h276q205 0 236 196q13 101 -34.5 149t-140.5 48h-282zM539 1720h143l139 -133l178 133h144l-258 -245h-158z" />
<glyph unicode="&#x159;" horiz-adv-x="757" d="M86 0l143 1024h267l-23 -164h4q66 78 165.5 131t213.5 53l-33 -251q-99 0 -199 -22.5t-171 -55.5l-101 -715h-266zM291 1393h143l139 -133l179 133h143l-258 -246h-158z" />
<glyph unicode="&#x15a;" horiz-adv-x="1228" d="M94 55l80 236q257 -62 473 -62q106 0 173.5 44t76.5 114q3 21 0.5 39t-13 33.5t-20.5 27t-31.5 23t-36 18.5t-44.5 16.5t-46.5 14.5t-52 14.5t-51.5 14.5q-397 118 -352 436q15 102 65.5 178.5t127.5 121.5t169 67t199 22q232 0 481 -78l-96 -235q-252 61 -420 61 q-103 0 -161.5 -39.5t-67.5 -105.5q-5 -33 9.5 -60.5t36.5 -45t68 -35t80 -27t97 -25.5q91 -22 159.5 -54t120 -81t72.5 -119t8 -159q-16 -109 -68 -192t-131 -134.5t-177 -77.5t-212 -26q-268 0 -516 75zM772 1477l148 245h219l-224 -245h-143z" />
<glyph unicode="&#x15b;" horiz-adv-x="983" d="M59 29l78 211q188 -47 381 -47q87 0 131.5 31t50.5 67q6 37 -31.5 59t-131.5 41q-73 13 -127.5 29t-104.5 43t-79 63.5t-42.5 89.5t-3.5 121q43 307 447 307q236 0 424 -49l-78 -213q-194 49 -361 49q-83 0 -121.5 -26t-44.5 -60q-6 -38 25.5 -60.5t126.5 -43.5 q75 -17 116 -28.5t103 -38.5t92 -58t49.5 -84.5t10.5 -122.5q-23 -164 -141 -246.5t-310 -82.5q-271 0 -459 49zM602 1147l148 246h219l-224 -246h-143z" />
<glyph unicode="&#x15c;" horiz-adv-x="1228" d="M94 55l80 236q257 -62 473 -62q106 0 173.5 44t76.5 114q3 21 0.5 39t-13 33.5t-20.5 27t-31.5 23t-36 18.5t-44.5 16.5t-46.5 14.5t-52 14.5t-51.5 14.5q-397 118 -352 436q15 102 65.5 178.5t127.5 121.5t169 67t199 22q232 0 481 -78l-96 -235q-252 61 -420 61 q-103 0 -161.5 -39.5t-67.5 -105.5q-5 -33 9.5 -60.5t36.5 -45t68 -35t80 -27t97 -25.5q91 -22 159.5 -54t120 -81t72.5 -119t8 -159q-16 -109 -68 -192t-131 -134.5t-177 -77.5t-212 -26q-268 0 -516 75zM541 1495l258 246h157l189 -246h-144l-139 133l-178 -133h-143z" />
<glyph unicode="&#x15d;" horiz-adv-x="983" d="M59 29l78 211q188 -47 381 -47q87 0 131.5 31t50.5 67q6 37 -31.5 59t-131.5 41q-73 13 -127.5 29t-104.5 43t-79 63.5t-42.5 89.5t-3.5 121q43 307 447 307q236 0 424 -49l-78 -213q-194 49 -361 49q-83 0 -121.5 -26t-44.5 -60q-6 -38 25.5 -60.5t126.5 -43.5 q75 -17 116 -28.5t103 -38.5t92 -58t49.5 -84.5t10.5 -122.5q-23 -164 -141 -246.5t-310 -82.5q-271 0 -459 49zM367 1147l258 246h157l189 -246h-144l-139 133l-178 -133h-143z" />
<glyph unicode="&#x15e;" horiz-adv-x="1228" d="M94 55l80 236q257 -62 473 -62q106 0 173.5 44t76.5 114q3 21 0.5 39t-13 33.5t-20.5 27t-31.5 23t-36 18.5t-44.5 16.5t-46.5 14.5t-52 14.5t-51.5 14.5q-397 118 -352 436q15 102 65.5 178.5t127.5 121.5t169 67t199 22q232 0 481 -78l-96 -235q-252 61 -420 61 q-103 0 -161.5 -39.5t-67.5 -105.5q-5 -33 9.5 -60.5t36.5 -45t68 -35t80 -27t97 -25.5q91 -22 159.5 -54t120 -81t72.5 -119t8 -159q-15 -106 -64.5 -187.5t-125 -133t-169.5 -79t-204 -30.5l-12 -89q167 -19 149 -149q-9 -74 -70.5 -118t-160.5 -44q-82 0 -162 25l29 84 q67 -13 94 -13q49 0 77 23t31 57q5 32 -19 55t-73 29l21 142q-243 10 -445 73z" />
<glyph unicode="&#x15f;" horiz-adv-x="983" d="M59 29l78 211q188 -47 381 -47q87 0 131.5 31t50.5 67q6 37 -31.5 59t-131.5 41q-73 13 -127.5 29t-104.5 43t-79 63.5t-42.5 89.5t-3.5 121q43 307 447 307q236 0 424 -49l-78 -213q-194 49 -361 49q-83 0 -121.5 -26t-44.5 -60q-6 -38 25.5 -60.5t126.5 -43.5 q75 -17 116 -28.5t103 -38.5t92 -58t49.5 -84.5t10.5 -122.5q-23 -162 -136.5 -244t-300.5 -85l-14 -89q31 -4 56 -11.5t50.5 -23t38 -45t7.5 -69.5q-11 -74 -73 -118t-159 -44q-84 0 -164 25l29 84q67 -13 94 -13q49 0 77.5 23t33.5 57q5 32 -19 55t-73 29l18 142 q-228 7 -375 47z" />
<glyph unicode="&#x160;" horiz-adv-x="1228" d="M94 55l80 236q257 -62 473 -62q106 0 173.5 44t76.5 114q3 21 0.5 39t-13 33.5t-20.5 27t-31.5 23t-36 18.5t-44.5 16.5t-46.5 14.5t-52 14.5t-51.5 14.5q-397 118 -352 436q15 102 65.5 178.5t127.5 121.5t169 67t199 22q232 0 481 -78l-96 -235q-252 61 -420 61 q-103 0 -161.5 -39.5t-67.5 -105.5q-5 -33 9.5 -60.5t36.5 -45t68 -35t80 -27t97 -25.5q91 -22 159.5 -54t120 -81t72.5 -119t8 -159q-16 -109 -68 -192t-131 -134.5t-177 -77.5t-212 -26q-268 0 -516 75zM553 1720h143l140 -133l178 133h143l-258 -245h-158z" />
<glyph unicode="&#x161;" horiz-adv-x="983" d="M59 29l78 211q188 -47 381 -47q87 0 131.5 31t50.5 67q6 37 -31.5 59t-131.5 41q-73 13 -127.5 29t-104.5 43t-79 63.5t-42.5 89.5t-3.5 121q43 307 447 307q236 0 424 -49l-78 -213q-194 49 -361 49q-83 0 -121.5 -26t-44.5 -60q-6 -38 25.5 -60.5t126.5 -43.5 q75 -17 116 -28.5t103 -38.5t92 -58t49.5 -84.5t10.5 -122.5q-23 -164 -141 -246.5t-310 -82.5q-271 0 -459 49zM401 1393h144l139 -133l178 133h144l-258 -246h-158z" />
<glyph unicode="&#x162;" horiz-adv-x="1146" d="M227 1141l33 252h1014l-33 -252h-367l-159 -1141h-283l160 1141h-365zM420 -266l24 184h236l-25 -184l-149 -170h-82l72 170h-76z" />
<glyph unicode="&#x163;" horiz-adv-x="768" d="M147 834l23 174l141 16l72 287h233l-38 -287h256l-27 -190h-256l-68 -494q-12 -74 17.5 -110.5t109.5 -36.5q46 0 95 10l-5 -205q-88 -18 -213 -18q-173 0 -237.5 74t-40.5 239l76 541h-138zM258 -266l25 184h235l-24 -184l-150 -170h-82l72 170h-76z" />
<glyph unicode="&#x164;" horiz-adv-x="1146" d="M227 1141l33 252h1014l-33 -252h-367l-159 -1141h-283l160 1141h-365zM512 1720h143l140 -133l178 133h143l-258 -245h-158z" />
<glyph unicode="&#x165;" horiz-adv-x="768" d="M147 834l23 174l141 16l72 287h233l-38 -287h256l-27 -190h-256l-68 -494q-12 -74 17.5 -110.5t109.5 -36.5q46 0 95 10l-5 -205q-88 -18 -213 -18q-173 0 -237.5 74t-40.5 239l76 541h-138zM705 1249l24 185h236l-25 -185l-149 -170h-82l71 170h-75z" />
<glyph unicode="&#x166;" horiz-adv-x="1146" d="M227 1141l33 252h1014l-33 -252h-367l-73 -508h160l-23 -160h-160l-63 -473h-283l66 473h-160l22 160h160l72 508h-365z" />
<glyph unicode="&#x167;" horiz-adv-x="768" d="M111 475l22 160h123l29 199h-138l23 174l141 16l72 287h233l-38 -287h256l-27 -190h-256l-29 -199h236l-23 -160h-235l-17 -135q-12 -74 17.5 -110.5t109.5 -36.5q46 0 95 10l-5 -205q-88 -18 -213 -18q-173 0 -237.5 74t-40.5 239l24 182h-122z" />
<glyph unicode="&#x168;" horiz-adv-x="1310" d="M174 492l127 901h283l-127 -901q-5 -45 -5 -86t13.5 -76t38.5 -60.5t71.5 -40t110.5 -14.5q78 0 135 21.5t90.5 61.5t51.5 86.5t26 107.5l127 901h281l-127 -901q-18 -134 -70.5 -233.5t-134 -160t-184.5 -89.5t-230 -29q-259 0 -385.5 124t-91.5 388zM526 1546 q114 187 248 187q42 0 92 -22.5t94 -45.5t72 -23q65 0 144 84l57 -79q-104 -164 -223 -164q-39 0 -127 42t-127 42q-35 0 -68 -17t-90 -69z" />
<glyph unicode="&#x169;" d="M131 322l98 702h267l-88 -641q-14 -89 20.5 -136.5t116.5 -47.5q92 0 225 80l104 745h267l-144 -1024h-266l19 133h-5q-163 -153 -356 -153q-150 0 -215 90.5t-43 251.5zM365 1198q114 186 247 186q43 0 92.5 -22.5t93.5 -45t72 -22.5q65 0 144 84l57 -80 q-103 -163 -223 -163q-39 0 -127 42t-127 42q-35 0 -68 -17t-90 -69z" />
<glyph unicode="&#x16a;" horiz-adv-x="1310" d="M174 492l127 901h283l-127 -901q-5 -45 -5 -86t13.5 -76t38.5 -60.5t71.5 -40t110.5 -14.5q78 0 135 21.5t90.5 61.5t51.5 86.5t26 107.5l127 901h281l-127 -901q-18 -134 -70.5 -233.5t-134 -160t-184.5 -89.5t-230 -29q-259 0 -385.5 124t-91.5 388zM539 1540l20 160 h666l-21 -160h-665z" />
<glyph unicode="&#x16b;" d="M131 322l98 702h267l-88 -641q-14 -89 20.5 -136.5t116.5 -47.5q92 0 225 80l104 745h267l-144 -1024h-266l19 133h-5q-163 -153 -356 -153q-150 0 -215 90.5t-43 251.5zM377 1192l20 160h666l-21 -160h-665z" />
<glyph unicode="&#x16c;" horiz-adv-x="1310" d="M174 492l127 901h283l-127 -901q-5 -45 -5 -86t13.5 -76t38.5 -60.5t71.5 -40t110.5 -14.5q78 0 135 21.5t90.5 61.5t51.5 86.5t26 107.5l127 901h281l-127 -901q-18 -134 -70.5 -233.5t-134 -160t-184.5 -89.5t-230 -29q-259 0 -385.5 124t-91.5 388zM604 1792h109 q14 -64 58.5 -101.5t115.5 -37.5q70 0 125.5 38t85.5 101h108q-38 -139 -123.5 -216t-218.5 -77q-134 0 -198 77t-62 216z" />
<glyph unicode="&#x16d;" d="M131 322l98 702h267l-88 -641q-14 -89 20.5 -136.5t116.5 -47.5q92 0 225 80l104 745h267l-144 -1024h-266l19 133h-5q-163 -153 -356 -153q-150 0 -215 90.5t-43 251.5zM442 1444h109q14 -64 58.5 -101.5t115.5 -37.5q70 0 125.5 38t85.5 101h108q-38 -139 -123.5 -216 t-218.5 -77q-134 0 -198 77t-62 216z" />
<glyph unicode="&#x16e;" horiz-adv-x="1310" d="M174 492l127 901h283l-127 -901q-5 -45 -5 -86t13.5 -76t38.5 -60.5t71.5 -40t110.5 -14.5q78 0 135 21.5t90.5 61.5t51.5 86.5t26 107.5l127 901h281l-127 -901q-18 -134 -70.5 -233.5t-134 -160t-184.5 -89.5t-230 -29q-259 0 -385.5 124t-91.5 388zM719 1618 q9 68 62.5 113t123.5 45q69 0 110 -44.5t32 -113.5q-10 -69 -64 -114.5t-123 -45.5q-70 0 -110.5 46t-30.5 114zM803 1618q-4 -37 14.5 -60.5t52.5 -23.5q35 0 62 23.5t31 60.5q5 36 -15 60t-55 24q-34 0 -59.5 -24.5t-30.5 -59.5z" />
<glyph unicode="&#x16f;" d="M131 322l98 702h267l-88 -641q-14 -89 20.5 -136.5t116.5 -47.5q92 0 225 80l104 745h267l-144 -1024h-266l19 133h-5q-163 -153 -356 -153q-150 0 -215 90.5t-43 251.5zM557 1270q9 68 62.5 112.5t123.5 44.5t110.5 -44.5t31.5 -112.5q-10 -69 -64 -114.5t-123 -45.5 q-70 0 -110.5 46t-30.5 114zM641 1270q-4 -37 15 -60.5t53 -23.5q35 0 61.5 23.5t30.5 60.5q5 35 -14.5 59.5t-53.5 24.5t-61 -24.5t-31 -59.5z" />
<glyph unicode="&#x170;" horiz-adv-x="1310" d="M174 492l127 901h283l-127 -901q-5 -45 -5 -86t13.5 -76t38.5 -60.5t71.5 -40t110.5 -14.5q78 0 135 21.5t90.5 61.5t51.5 86.5t26 107.5l127 901h281l-127 -901q-18 -134 -70.5 -233.5t-134 -160t-184.5 -89.5t-230 -29q-259 0 -385.5 124t-91.5 388zM637 1495l147 246 h174l-178 -246h-143zM887 1495l147 246h174l-178 -246h-143z" />
<glyph unicode="&#x171;" d="M131 322l98 702h267l-88 -641q-14 -89 20.5 -136.5t116.5 -47.5q92 0 225 80l104 745h267l-144 -1024h-266l19 133h-5q-163 -153 -356 -153q-150 0 -215 90.5t-43 251.5zM502 1147l147 246h174l-178 -246h-143zM752 1147l147 246h174l-178 -246h-143z" />
<glyph unicode="&#x172;" horiz-adv-x="1310" d="M174 492l127 901h283l-127 -901q-5 -45 -5 -86t13.5 -76t38.5 -60.5t71.5 -40t110.5 -14.5q78 0 135 21.5t90.5 61.5t51.5 86.5t26 107.5l127 901h281l-127 -901q-34 -250 -181.5 -374.5t-386.5 -135.5q-55 -44 -89 -94t-40 -95q-7 -52 20.5 -80t84.5 -28q40 0 98 24 l2 -65q-39 -27 -95.5 -43.5t-107.5 -16.5q-91 0 -144 44.5t-44 115.5q18 129 186 240q-462 37 -399 508z" />
<glyph unicode="&#x173;" d="M131 322l98 702h267l-88 -641q-14 -89 20.5 -136.5t116.5 -47.5q92 0 225 80l104 745h267l-144 -1024q-98 -12 -158 -75.5t-71 -131.5q-7 -52 20 -80t84 -28q45 0 99 24l2 -65q-39 -27 -95.5 -43.5t-107.5 -16.5q-38 0 -72 9t-63 27.5t-43.5 51t-9.5 74.5q11 68 66 133.5 t149 120.5h-66l19 133h-5q-163 -153 -356 -153q-150 0 -215 90.5t-43 251.5z" />
<glyph unicode="&#x174;" horiz-adv-x="1925" d="M240 1393h313l74 -1047h2l370 1047h330l82 -1047h2l363 1047h297l-537 -1403h-360l-80 950h-4l-347 -950h-360zM868 1495l258 246h158l189 -246h-144l-139 133l-178 -133h-144z" />
<glyph unicode="&#x175;" horiz-adv-x="1617" d="M195 1024h297l73 -741h4l260 741h258l64 -741h4l272 741h283l-442 -1034h-297l-76 626h-4l-246 -626h-297zM666 1147l258 246h157l189 -246h-144l-139 133l-178 -133h-143z" />
<glyph unicode="&#x176;" horiz-adv-x="1269" d="M240 1393h321l189 -617h4l358 617h305l-573 -901l-68 -492h-282l67 492zM541 1495l258 246h157l189 -246h-144l-139 133l-178 -133h-143z" />
<glyph unicode="&#x177;" horiz-adv-x="1146" d="M33 -412l55 219q55 -10 96 -10q72 0 137 51.5t105 137.5l-231 1038h297l129 -748h4l331 748h283l-510 -1061q-104 -216 -222.5 -304.5t-291.5 -88.5q-105 0 -182 18zM430 1147l258 246h158l188 -246h-143l-139 133l-179 -133h-143z" />
<glyph unicode="&#x178;" horiz-adv-x="1269" d="M240 1393h321l189 -617h4l358 617h305l-573 -901l-68 -492h-282l67 492zM487 1501l35 236h219l-32 -236h-222zM979 1501l35 236h219l-33 -236h-221z" />
<glyph unicode="&#x179;" horiz-adv-x="1146" d="M61 0l29 205l750 932l2 4h-580l35 252h963l-29 -205l-744 -934v-4h633l-35 -250h-1024zM702 1477l148 245h219l-223 -245h-144z" />
<glyph unicode="&#x17a;" horiz-adv-x="962" d="M39 0l24 188l611 627l2 4h-492l29 205h829l-28 -190l-602 -625v-4h540l-28 -205h-885zM555 1147l147 246h220l-224 -246h-143z" />
<glyph unicode="&#x17b;" horiz-adv-x="1146" d="M61 0l29 205l750 932l2 4h-580l35 252h963l-29 -205l-744 -934v-4h633l-35 -250h-1024zM666 1505l32 236h236l-33 -236h-235z" />
<glyph unicode="&#x17c;" horiz-adv-x="962" d="M39 0l24 188l611 627l2 4h-492l29 205h829l-28 -190l-602 -625v-4h540l-28 -205h-885zM524 1157l33 236h236l-33 -236h-236z" />
<glyph unicode="&#x17d;" horiz-adv-x="1146" d="M61 0l29 205l750 932l2 4h-580l35 252h963l-29 -205l-744 -934v-4h633l-35 -250h-1024zM512 1720h143l140 -133l178 133h143l-258 -245h-158z" />
<glyph unicode="&#x17e;" horiz-adv-x="962" d="M39 0l24 188l611 627l2 4h-492l29 205h829l-28 -190l-602 -625v-4h540l-28 -205h-885zM373 1393h143l139 -133l179 133h143l-258 -246h-158z" />
<glyph unicode="&#x17f;" horiz-adv-x="706" d="M-125 -412l55 205q44 -10 90 -10q67 0 96 24t38 87l172 1226q24 165 108.5 239.5t257.5 74.5q68 0 176 -19l-53 -205q-64 11 -92 11q-66 0 -97 -36t-42 -112l-168 -1198q-11 -79 -33 -132.5t-63 -94t-107.5 -59.5t-161.5 -19q-90 0 -176 18z" />
<glyph unicode="&#x2c6;" horiz-adv-x="829" d="M272 1147l258 246h158l189 -246h-144l-139 133l-178 -133h-144z" />
<glyph unicode="&#x2da;" horiz-adv-x="552" d="M291 1270q9 68 62.5 112.5t123.5 44.5q69 0 109.5 -44t31.5 -113q-10 -69 -63.5 -114.5t-122.5 -45.5q-70 0 -110.5 46t-30.5 114zM375 1270q-4 -37 14.5 -60.5t52.5 -23.5q35 0 62 23.5t31 60.5q5 35 -14.5 59.5t-53.5 24.5t-61 -24.5t-31 -59.5z" />
<glyph unicode="&#x2dc;" horiz-adv-x="919" d="M281 1198q114 186 247 186q43 0 92.5 -22.5t93.5 -45t72 -22.5q65 0 144 84l57 -80q-103 -163 -223 -163q-39 0 -127 42t-127 42q-35 0 -68 -17t-90 -69z" />
<glyph unicode="&#x1e80;" horiz-adv-x="1925" d="M240 1393h313l74 -1047h2l370 1047h330l82 -1047h2l363 1047h297l-537 -1403h-360l-80 950h-4l-347 -950h-360zM963 1700h219l78 -246h-144z" />
<glyph unicode="&#x1e81;" horiz-adv-x="1617" d="M195 1024h297l73 -741h4l260 741h258l64 -741h4l272 741h283l-442 -1034h-297l-76 626h-4l-246 -626h-297zM737 1393h219l78 -246h-143z" />
<glyph unicode="&#x1e82;" horiz-adv-x="1925" d="M240 1393h313l74 -1047h2l370 1047h330l82 -1047h2l363 1047h297l-537 -1403h-360l-80 950h-4l-347 -950h-360zM1106 1477l147 245h220l-224 -245h-143z" />
<glyph unicode="&#x1e83;" horiz-adv-x="1617" d="M195 1024h297l73 -741h4l260 741h258l64 -741h4l272 741h283l-442 -1034h-297l-76 626h-4l-246 -626h-297zM905 1143l148 246h219l-223 -246h-144z" />
<glyph unicode="&#x1e84;" horiz-adv-x="1925" d="M240 1393h313l74 -1047h2l370 1047h330l82 -1047h2l363 1047h297l-537 -1403h-360l-80 950h-4l-347 -950h-360zM815 1501l35 236h219l-33 -236h-221zM1307 1501l34 236h220l-33 -236h-221z" />
<glyph unicode="&#x1e85;" horiz-adv-x="1617" d="M195 1024h297l73 -741h4l260 741h258l64 -741h4l272 741h283l-442 -1034h-297l-76 626h-4l-246 -626h-297zM614 1157l33 236h219l-32 -236h-220zM1106 1157l33 236h219l-33 -236h-219z" />
<glyph unicode="&#x1ef2;" horiz-adv-x="1269" d="M240 1393h321l189 -617h4l358 617h305l-573 -901l-68 -492h-282l67 492zM623 1700h219l78 -246h-144z" />
<glyph unicode="&#x1ef3;" horiz-adv-x="1146" d="M33 -412l55 219q55 -10 96 -10q72 0 137 51.5t105 137.5l-231 1038h297l129 -748h4l331 748h283l-510 -1061q-104 -216 -222.5 -304.5t-291.5 -88.5q-105 0 -182 18zM504 1393h219l78 -246h-144z" />
<glyph unicode="&#x2000;" horiz-adv-x="896" />
<glyph unicode="&#x2001;" horiz-adv-x="1792" />
<glyph unicode="&#x2002;" horiz-adv-x="896" />
<glyph unicode="&#x2003;" horiz-adv-x="1792" />
<glyph unicode="&#x2004;" horiz-adv-x="597" />
<glyph unicode="&#x2005;" horiz-adv-x="448" />
<glyph unicode="&#x2006;" horiz-adv-x="298" />
<glyph unicode="&#x2007;" horiz-adv-x="298" />
<glyph unicode="&#x2008;" horiz-adv-x="224" />
<glyph unicode="&#x2009;" horiz-adv-x="358" />
<glyph unicode="&#x200a;" horiz-adv-x="99" />
<glyph unicode="&#x2010;" horiz-adv-x="1024" d="M147 432l31 221h850l-31 -221h-850z" />
<glyph unicode="&#x2011;" horiz-adv-x="1024" d="M147 432l31 221h850l-31 -221h-850z" />
<glyph unicode="&#x2012;" horiz-adv-x="1024" d="M147 432l31 221h850l-31 -221h-850z" />
<glyph unicode="&#x2013;" horiz-adv-x="1427" d="M147 432l31 221h1254l-31 -221h-1254z" />
<glyph unicode="&#x2014;" horiz-adv-x="1556" d="M147 432l31 221h1383l-31 -221h-1383z" />
<glyph unicode="&#x2018;" horiz-adv-x="440" d="M203 829l41 297l166 267h82l-89 -267h107l-41 -297h-266z" />
<glyph unicode="&#x2019;" horiz-adv-x="440" d="M240 1096l41 297h266l-41 -297l-166 -267h-82l90 267h-108z" />
<glyph unicode="&#x201a;" horiz-adv-x="440" d="M74 -92l41 297h266l-41 -297l-166 -266h-82l88 266h-106z" />
<glyph unicode="&#x201c;" horiz-adv-x="890" d="M203 829l41 297l166 267h82l-89 -267h107l-41 -297h-266zM653 829l41 297q69 118 166 267h82l-88 -267h107l-41 -297h-267z" />
<glyph unicode="&#x201d;" horiz-adv-x="890" d="M240 1096l41 297h266l-41 -297l-166 -267h-82l90 267h-108zM690 1096l41 297h266l-41 -297l-165 -267h-82l90 267h-109z" />
<glyph unicode="&#x201e;" horiz-adv-x="890" d="M74 -92l41 297h266l-41 -297l-166 -266h-82l88 266h-106zM524 -92l41 297h266l-40 -297l-166 -266h-82l88 266h-107z" />
<glyph unicode="&#x2026;" horiz-adv-x="1259" d="M86 0l41 297h266l-41 -297h-266zM496 0l41 297h266l-41 -297h-266zM905 0l41 297h266l-41 -297h-266z" />
<glyph unicode="&#x202f;" horiz-adv-x="358" />
<glyph unicode="&#x2039;" horiz-adv-x="778" d="M147 432l23 160l653 344l-35 -236l-348 -188l295 -188l-33 -238z" />
<glyph unicode="&#x203a;" horiz-adv-x="778" d="M98 86l33 238l350 188l-297 188l35 236l555 -344l-22 -160z" />
<glyph unicode="&#x205f;" horiz-adv-x="448" />
<glyph unicode="&#x20ac;" horiz-adv-x="1433" d="M147 473l21 160h145q2 13 5.5 38t5.5 36q4 34 8 53h-146l23 160h168q78 225 248.5 359t414.5 134q286 0 486 -174l-125 -213q-163 135 -348 135q-248 0 -363 -241h359l-39 -160h-381q-4 -19 -8 -53q-6 -42 -9 -74h396l-39 -160h-336q25 -113 96.5 -178.5t194.5 -65.5 q177 0 383 138l65 -213q-246 -174 -532 -174q-122 0 -217.5 36.5t-158.5 103.5t-100 155.5t-47 197.5h-170z" />
<glyph unicode="&#x2122;" horiz-adv-x="1628" d="M248 1251l18 142h561l-18 -142h-203l-78 -563h-159l80 563h-201zM870 688l99 705h223l111 -441h4l221 441h223l-98 -705h-160l63 442h-4l-235 -442h-123l-109 442h-2l-61 -442h-152z" />
<glyph unicode="&#x25fc;" horiz-adv-x="1024" d="M0 0v1024h1024v-1024h-1024z" />
</font>
</defs>
</svg>
